<?xml version="1.0" standalone="no"?>
<!DOCTYPE svg PUBLIC "-//W3C//DTD SVG 1.1//EN" "http://www.w3.org/Graphics/SVG/1.1/DTD/svg11.dtd" >
<svg xmlns="http://www.w3.org/2000/svg" xmlns:xlink="http://www.w3.org/1999/xlink" version="1.1">
<metadata>
Created by FontForge 20200314 at Tue May 11 04:39:53 2021
 By Unknown
Copyright \(c\) 2018-2021 by Avraham Cornfeld. All rights reserved.
</metadata>
<defs>
<font id="PloniMLv2AAA-Bold" horiz-adv-x="0" >
  <font-face 
    font-family="PloniMLv2AAA-Bold"
    font-weight="700"
    font-stretch="normal"
    units-per-em="1158"
    panose-1="1 0 0 0 0 0 0 0 0 0"
    ascent="926"
    descent="-232"
    x-height="550"
    cap-height="700"
    bbox="-709 -337 1656 1140"
    underline-thickness="57"
    underline-position="-142"
    stemh="140"
    stemv="160"
    unicode-range="U+0020-1F10B"
  />
<missing-glyph horiz-adv-x="570" 
d="M66 700h437c22 0 33 -11 33 -33v-635c0 -21 -11 -32 -33 -32h-437c-21 0 -32 11 -32 32v635c0 22 11 33 32 33zM355 590h-141l71 -141zM154 186l74 164l-74 164v-328zM416 186v328l-75 -164zM214 110h141l-70 142z" />
    <glyph glyph-name="f_f.liga" unicode="ff" horiz-adv-x="711" 
d="M630 640c-34 0 -58 -25 -58 -75v-15h108v-125h-108v-425h-160v425h-160v-425h-160v425h-56v125h56v45c0 196 187 229 316 148l-47 -112c-53 28 -109 24 -109 -51v-30h160v47c0 123 87 181 183 181c58 0 118 -26 166 -58l-60 -106c-26 15 -50 26 -71 26z" />
    <glyph glyph-name="f_f_i.liga" unicode="ffi" horiz-adv-x="953" 
d="M892 550v-550h-160v425h-160v-425h-160v425h-160v-425h-160v425h-56v125h56v45c0 196 187 229 316 148l-47 -112c-53 28 -109 24 -109 -51v-30h160v7c0 261 251 348 457 165l-85 -105c-116 94 -212 64 -212 -60v-7h320z" />
    <glyph glyph-name="f_f_l.liga" unicode="ffl" horiz-adv-x="967" 
d="M412 550v17c0 261 249 336 494 183v-750h-160v663c-107 40 -174 -2 -174 -110v-3h103v-125h-103v-425h-160v425h-160v-425h-160v425h-56v125h56v45c0 196 187 229 316 148l-47 -112c-53 28 -109 24 -109 -51v-30h160z" />
    <glyph glyph-name="f_i.liga" unicode="fi" horiz-adv-x="633" 
d="M572 550v-550h-160v425h-160v-425h-160v425h-56v125h56v7c0 261 251 348 457 165l-85 -105c-116 94 -212 64 -212 -60v-7h320z" />
    <glyph glyph-name="f_l.liga" unicode="fl" horiz-adv-x="647" 
d="M92 550v17c0 261 249 336 494 183v-750h-160v663c-107 40 -174 -2 -174 -110v-3h103v-125h-103v-425h-160v425h-56v125h56z" />
    <glyph glyph-name="uni05D005D005D0.liga" unicode="&#x5d0;&#x5d0;&#x5d0;" horiz-adv-x="1390" 
d="M40 593v7h188l436 -593v-7h-188l-202 274c-47 -41 -68 -122 -63 -274h-170c-5 225 45 333 149 389zM380 593v7h188l436 -593v-7h-188zM1194 211l150 -204v-7h-188l-436 593v7h188l202 -274c47 41 68 122 63 274h170c5 -225 -45 -333 -149 -389z" />
    <glyph glyph-name=".notdef" horiz-adv-x="570" 
d="M66 700h437c22 0 33 -11 33 -33v-635c0 -21 -11 -32 -33 -32h-437c-21 0 -32 11 -32 32v635c0 22 11 33 32 33zM355 590h-141l71 -141zM154 186l74 164l-74 164v-328zM416 186v328l-75 -164zM214 110h141l-70 142z" />
    <glyph glyph-name="space" unicode=" " horiz-adv-x="300" 
 />
    <glyph glyph-name="exclam" unicode="!" horiz-adv-x="374" 
d="M284 700l-21 -438h-152l-21 438h194zM187 -7c-60 0 -108 48 -108 108s48 108 108 108s108 -48 108 -108s-48 -108 -108 -108z" />
    <glyph glyph-name="quotedbl" unicode="&#x22;" horiz-adv-x="474" 
d="M38 405l46 295h164l-82 -295h-128zM242 405l46 295h164l-82 -295h-128z" />
    <glyph glyph-name="numbersign" unicode="#" horiz-adv-x="847" 
d="M827 555l-31 -135h-129l-28 -121h130l-31 -135h-130l-37 -164h-166l37 164h-127l-37 -164h-166l37 164h-129l31 135h129l28 121h-130l31 135h130l33 145h166l-33 -145h127l33 145h166l-33 -145h129zM346 299h127l28 121h-127z" />
    <glyph glyph-name="dollar" unicode="$" horiz-adv-x="596" 
d="M550 212c0 -116 -91 -176 -188 -193v-79h-121v78c-99 15 -176 72 -211 167l129 73c39 -75 89 -107 150 -107c54 0 84 19 84 55c0 37 -30 62 -129 94c-100 32 -221 76 -221 208c0 115 92 172 198 185v67h121v-73c89 -21 146 -76 178 -143l-135 -65c-25 48 -69 78 -125 78
c-49 0 -79 -16 -79 -50c0 -33 22 -54 139 -88c124 -37 210 -82 210 -207z" />
    <glyph glyph-name="percent" unicode="%" horiz-adv-x="894" 
d="M237 291c-118 0 -191 84 -191 208s73 208 191 208c116 0 188 -84 188 -208s-72 -208 -188 -208zM469 442v13l167 245h161v-5l-187 -253h-141zM237 394c46 0 70 42 70 105c0 64 -24 106 -70 106c-47 0 -72 -42 -72 -106c0 -63 25 -105 72 -105zM660 -8
c-118 0 -191 84 -191 208s73 208 191 208c116 0 188 -84 188 -208s-72 -208 -188 -208zM660 95c46 0 70 42 70 105c0 64 -24 106 -70 106c-47 0 -72 -42 -72 -106c0 -63 25 -105 72 -105zM433 258v-13l-167 -245h-161v5l187 253h141z" />
    <glyph glyph-name="ampersand" unicode="&#x26;" horiz-adv-x="676" 
d="M560 128l97 -118v-10h-183l-25 30c-57 -29 -121 -39 -191 -39c-156 -1 -237 89 -237 186c0 101 44 165 128 224c-100 164 25 308 198 308c130 0 213 -61 243 -182l-140 -44c-21 58 -54 82 -98 82c-66 0 -101 -60 -45 -128l154 -188c20 32 36 72 48 119l141 -47
c-25 -83 -56 -145 -90 -193zM272 133c27 0 54 5 80 16l-112 137c-33 -22 -50 -51 -50 -86c0 -40 32 -67 82 -67z" />
    <glyph glyph-name="quotesingle" unicode="'" horiz-adv-x="274" 
d="M38 405l47 295h167l-84 -295h-130z" />
    <glyph glyph-name="parenleft" unicode="(" horiz-adv-x="378" 
d="M221 700h136c-58 -67 -127 -234 -127 -400s69 -333 127 -400h-136c-96 93 -154 237 -154 400s58 307 154 400z" />
    <glyph glyph-name="parenright" unicode=")" horiz-adv-x="378" 
d="M21 700h136c96 -93 154 -237 154 -400s-58 -307 -154 -400h-136c58 67 127 234 127 400s-69 333 -127 400z" />
    <glyph glyph-name="asterisk" unicode="*" horiz-adv-x="559" 
d="M464 616l42 -131l-124 -35l80 -100l-111 -81l-71 108l-72 -108l-111 81l80 100l-124 35l42 131l122 -45l-6 129h138l-6 -129z" />
    <glyph glyph-name="plus" unicode="+" horiz-adv-x="578" 
d="M359 370h160v-140h-160v-160h-140v160h-160v140h160v160h140v-160z" />
    <glyph glyph-name="comma" unicode="," horiz-adv-x="264" 
d="M18 -137l47 283h164l-85 -283h-126z" />
    <glyph glyph-name="hyphen" unicode="-" horiz-adv-x="493" 
d="M434 230h-375v140h375v-140z" />
    <glyph glyph-name="period" unicode="." horiz-adv-x="298" 
d="M149 -7c-60 0 -108 48 -108 108s48 108 108 108s108 -48 108 -108s-48 -108 -108 -108z" />
    <glyph glyph-name="slash" unicode="/" horiz-adv-x="509" 
d="M334 700h164v-7l-323 -693h-164v7z" />
    <glyph glyph-name="zero" unicode="0" horiz-adv-x="666" 
d="M334 -11c-183 0 -297 138 -297 361s114 361 297 361c182 0 295 -138 295 -361s-113 -361 -295 -361zM334 143c77 0 125 79 125 207s-48 207 -125 207c-78 0 -127 -79 -127 -207s49 -207 127 -207z" />
    <glyph glyph-name="one" unicode="1" horiz-adv-x="450" 
d="M7 455l251 245h108v-700h-170v437l-90 -87z" />
    <glyph glyph-name="two" unicode="2" horiz-adv-x="575" 
d="M187 456l-167 25c31 176 139 230 265 230c149 0 245 -78 245 -213c0 -67 -42 -155 -140 -281l-56 -72h209v-145h-518v24l197 245c110 137 136 189 136 232c0 35 -24 61 -76 61c-48 0 -86 -32 -95 -106z" />
    <glyph glyph-name="three" unicode="3" horiz-adv-x="573" 
d="M436 378c65 -21 109 -87 109 -179c0 -119 -97 -210 -268 -210c-148 0 -241 67 -274 125l120 90c40 -46 96 -70 146 -70c63 0 106 27 106 81s-36 85 -122 85h-82v139h62c79 0 100 29 100 67c0 43 -32 60 -80 60c-37 0 -83 -14 -128 -63l-104 89c44 67 127 119 244 119
c150 0 238 -82 238 -190c0 -69 -27 -116 -67 -143z" />
    <glyph glyph-name="four" unicode="4" horiz-adv-x="595" 
d="M496 255h61v-145h-61v-110h-170v110h-312v136l343 454h139v-445zM329 438h-1l-134 -183h135v183z" />
    <glyph glyph-name="five" unicode="5" horiz-adv-x="540" 
d="M270 471c156 0 234 -103 234 -242c0 -133 -115 -240 -279 -240c-86 0 -148 15 -199 43l50 142c41 -21 82 -34 129 -34c70 0 122 34 122 97c0 70 -55 104 -133 104c-43 0 -89 -6 -140 -19l-5 2l22 376h408v-145h-249l-5 -87c16 2 31 3 45 3z" />
    <glyph glyph-name="six" unicode="6" horiz-adv-x="586" 
d="M344 458c127 0 218 -93 218 -223c0 -143 -113 -246 -271 -246s-271 103 -271 236c0 82 30 136 90 225l170 250h204v-8l-173 -236c11 2 22 2 33 2zM291 140c58 0 99 40 99 95s-41 95 -99 95s-99 -40 -99 -95s41 -95 99 -95z" />
    <glyph glyph-name="seven" unicode="7" horiz-adv-x="517" 
d="M20 555v145h486v-18l-242 -682h-179l198 555h-263z" />
    <glyph glyph-name="eight" unicode="8" horiz-adv-x="598" 
d="M468 383c67 -38 108 -102 108 -177c0 -127 -116 -218 -277 -218s-277 91 -277 218c0 75 41 138 108 177c-45 33 -72 80 -72 136c0 111 101 191 241 191s240 -80 240 -191c0 -55 -26 -103 -71 -136zM299 568c-41 0 -70 -27 -70 -64s29 -64 70 -64s70 27 70 64
s-29 64 -70 64zM299 138c60 0 104 36 104 86c0 51 -44 88 -104 88s-104 -37 -104 -88c0 -50 44 -86 104 -86z" />
    <glyph glyph-name="nine" unicode="9" horiz-adv-x="594" 
d="M297 711c158 0 271 -103 271 -236c0 -82 -30 -136 -90 -225l-170 -250h-204v8l173 236c-11 -2 -22 -2 -33 -2c-127 0 -218 93 -218 223c0 143 113 246 271 246zM297 370c58 0 99 40 99 95s-41 95 -99 95s-99 -40 -99 -95s41 -95 99 -95z" />
    <glyph glyph-name="colon" unicode=":" horiz-adv-x="338" 
d="M169 342c-60 0 -108 48 -108 108s48 108 108 108s108 -48 108 -108s-48 -108 -108 -108zM169 -7c-60 0 -108 48 -108 108s48 108 108 108s108 -48 108 -108s-48 -108 -108 -108z" />
    <glyph glyph-name="semicolon" unicode=";" horiz-adv-x="340" 
d="M171 342c-60 0 -108 48 -108 108s48 108 108 108s108 -48 108 -108s-48 -108 -108 -108zM51 -137l47 283h164l-85 -283h-126z" />
    <glyph glyph-name="less" unicode="&#x3c;" horiz-adv-x="557" 
d="M475 46l-411 185v138l411 186v-148l-259 -107l259 -106v-148z" />
    <glyph glyph-name="equal" unicode="=" horiz-adv-x="582" 
d="M513 352h-444v130h444v-130zM513 119h-444v130h444v-130z" />
    <glyph glyph-name="greater" unicode="&#x3e;" horiz-adv-x="557" 
d="M493 369v-138l-411 -185v148l259 106l-259 107v148z" />
    <glyph glyph-name="question" unicode="?" horiz-adv-x="564" 
d="M336 237h-154c-6 168 162 179 162 276c0 35 -23 53 -69 53c-41 0 -73 -29 -92 -97l-151 37c24 134 123 207 263 205c136 -2 217 -63 217 -179c0 -169 -179 -198 -176 -295zM259 -6c-54 0 -98 43 -98 98c0 54 44 98 98 98c55 0 98 -44 98 -98c0 -55 -43 -98 -98 -98z" />
    <glyph glyph-name="at" unicode="@" horiz-adv-x="957" 
d="M478 711c242 0 433 -190 433 -432c0 -178 -59 -281 -193 -281c-79 0 -121 42 -137 96c-31 -28 -76 -44 -130 -44c-103 0 -176 63 -176 151c0 87 73 150 176 150c35 0 68 -8 95 -23c-7 48 -39 66 -91 66c-44 0 -91 -16 -122 -34l-42 92c38 23 110 50 186 50
c124 0 198 -52 198 -193v-86c0 -78 18 -100 47 -100c36 0 52 38 52 156c0 165 -133 299 -296 299c-162 0 -295 -134 -295 -299c0 -181 155 -325 349 -295l19 -132c-301 -34 -505 177 -505 427c0 242 190 432 432 432zM477 146c46 0 77 22 76 56s-32 56 -76 56
c-45 0 -76 -22 -76 -56s31 -56 76 -56z" />
    <glyph glyph-name="A" unicode="A" horiz-adv-x="698" 
d="M287 700h124l294 -692v-8h-175l-42 109h-278l-42 -109h-175v8zM349 469l-87 -225h174z" />
    <glyph glyph-name="B" unicode="B" horiz-adv-x="669" 
d="M552 367c56 -28 87 -91 87 -164c0 -133 -82 -203 -221 -203h-342v700h327c134 0 213 -74 213 -199c0 -62 -25 -109 -64 -134zM378 563h-138v-138h138c55 0 80 23 80 68s-25 70 -80 70zM240 137h155c57 0 84 29 84 82s-27 80 -84 80h-155v-162z" />
    <glyph glyph-name="C" unicode="C" horiz-adv-x="650" 
d="M400 141c58 0 110 25 137 55l101 -111c-56 -64 -141 -97 -248 -97c-202 0 -354 154 -354 362s152 362 354 362c107 0 192 -33 248 -97l-101 -111c-27 30 -79 55 -137 55c-113 0 -199 -87 -199 -209s86 -209 199 -209z" />
    <glyph glyph-name="D" unicode="D" horiz-adv-x="735" 
d="M76 700h248c237 0 375 -127 375 -350s-138 -350 -375 -350h-248v700zM246 145h86c123 0 197 74 197 205s-74 205 -197 205h-86v-410z" />
    <glyph glyph-name="E" unicode="E" horiz-adv-x="642" 
d="M577 700v-145h-331v-129h271v-139h-271v-142h331v-145h-501v700h501z" />
    <glyph glyph-name="F" unicode="F" horiz-adv-x="593" 
d="M547 700v-145h-301v-138h249v-139h-249v-278h-170v700h471z" />
    <glyph glyph-name="G" unicode="G" horiz-adv-x="778" 
d="M413 419h325c31 -253 -117 -431 -339 -431c-210 0 -363 152 -363 362s153 361 363 361c101 0 208 -50 269 -126l-112 -99c-37 43 -101 72 -154 72c-111 0 -193 -84 -193 -208s82 -204 193 -204c91 0 162 56 177 140h-166v133z" />
    <glyph glyph-name="H" unicode="H" horiz-adv-x="770" 
d="M524 439v261h170v-700h-170v294h-278v-294h-170v700h170v-261h278z" />
    <glyph glyph-name="I" unicode="I" horiz-adv-x="322" 
d="M76 0v700h170v-700h-170z" />
    <glyph glyph-name="J" unicode="J" horiz-adv-x="532" 
d="M-12 146l152 60c11 -40 39 -66 80 -66c39 0 70 23 70 80v480h170v-480c0 -148 -87 -231 -232 -231c-116 0 -204 51 -240 157z" />
    <glyph glyph-name="K" unicode="K" horiz-adv-x="697" 
d="M682 695l-288 -324l300 -366v-5h-206l-242 300v-300h-170v700h170v-266l228 266h208v-5z" />
    <glyph glyph-name="L" unicode="L" horiz-adv-x="569" 
d="M246 700v-555h290v-145h-460v700h170z" />
    <glyph glyph-name="M" unicode="M" horiz-adv-x="920" 
d="M460 354l236 346h148v-700h-164v400l-200 -286h-40l-200 286v-400h-164v700h148z" />
    <glyph glyph-name="N" unicode="N" horiz-adv-x="785" 
d="M709 700v-700h-123l-343 400v-400h-167v700h123l343 -400v400h167z" />
    <glyph glyph-name="O" unicode="O" horiz-adv-x="796" 
d="M398 -12c-205 0 -362 155 -362 362s157 362 362 362s362 -155 362 -362s-157 -362 -362 -362zM398 148c109 0 192 86 192 202s-83 202 -192 202s-192 -86 -192 -202s83 -202 192 -202z" />
    <glyph glyph-name="P" unicode="P" horiz-adv-x="675" 
d="M76 700h308c160 0 255 -100 255 -249c0 -160 -95 -250 -255 -250h-138v-201h-170v700zM246 346h116c67 0 107 37 107 105c0 58 -40 104 -107 104h-116v-209z" />
    <glyph glyph-name="Q" unicode="Q" horiz-adv-x="800" 
d="M669 115l92 -107v-8h-196l-22 26c-43 -20 -93 -31 -154 -31c-195 0 -353 148 -353 355s157 362 362 362s362 -155 362 -362c0 -91 -34 -175 -91 -235zM398 148c13 0 25 1 37 3l-147 171v8h196l77 -90c19 31 29 69 29 110c0 116 -83 202 -192 202s-192 -86 -192 -202
s83 -202 192 -202z" />
    <glyph glyph-name="R" unicode="R" horiz-adv-x="685" 
d="M511 264l145 -256v-8h-180l-130 245h-100v-245h-170v700h324c152 0 241 -87 241 -227c0 -102 -46 -176 -130 -209zM378 555h-132v-165h132c59 0 93 33 93 83c0 49 -34 82 -93 82z" />
    <glyph glyph-name="S" unicode="S" horiz-adv-x="628" 
d="M571 552l-143 -69c-27 51 -73 83 -133 83c-52 0 -84 -17 -84 -53c0 -35 24 -57 148 -94c131 -39 223 -87 223 -219c0 -150 -142 -212 -266 -212c-134 0 -242 63 -286 183l137 77c41 -79 94 -113 159 -113c57 0 89 20 89 58c0 40 -32 66 -137 100
c-106 34 -234 81 -234 221c0 139 126 198 257 198c141 0 228 -70 270 -160z" />
    <glyph glyph-name="T" unicode="T" horiz-adv-x="618" 
d="M30 700h558v-145h-194v-555h-170v555h-194v145z" />
    <glyph glyph-name="U" unicode="U" horiz-adv-x="760" 
d="M519 292v408h170v-419c0 -180 -116 -293 -309 -293s-306 113 -307 293l-2 419h170v-408c0 -91 51 -146 139 -146s139 55 139 146z" />
    <glyph glyph-name="V" unicode="V" horiz-adv-x="686" 
d="M405 0h-124l-273 691v9h184l151 -414l151 414h184v-9z" />
    <glyph glyph-name="W" unicode="W" horiz-adv-x="1022" 
d="M831 700h183v-10l-241 -690h-119l-143 419l-143 -419h-119l-241 690v10h183l126 -388l125 388h138l125 -388z" />
    <glyph glyph-name="X" unicode="X" horiz-adv-x="713" 
d="M710 6v-6h-196l-157 246l-158 -246h-196l2 6l240 356l-226 332v6h196l142 -222l141 222h196v-6l-226 -332z" />
    <glyph glyph-name="Y" unicode="Y" horiz-adv-x="664" 
d="M331 449l140 251h191v-6l-246 -410v-284h-170v284l-244 410v6h191z" />
    <glyph glyph-name="Z" unicode="Z" horiz-adv-x="624" 
d="M45 700h539v-10l-301 -545h301v-145h-561v10l301 545h-279v145z" />
    <glyph glyph-name="bracketleft" unicode="[" horiz-adv-x="397" 
d="M86 770h282v-130h-122v-680h122v-130h-282v940z" />
    <glyph glyph-name="backslash" unicode="\" horiz-adv-x="509" 
d="M11 693v7h164l323 -693v-7h-164z" />
    <glyph glyph-name="bracketright" unicode="]" horiz-adv-x="397" 
d="M29 640v130h282v-940h-282v130h122v680h-122z" />
    <glyph glyph-name="asciicircum" unicode="^" horiz-adv-x="655" 
d="M324 733h6l282 -291l-110 -104l-175 197l-174 -197l-110 103z" />
    <glyph glyph-name="underscore" unicode="_" horiz-adv-x="415" 
d="M15 -181v145h385v-145h-385z" />
    <glyph glyph-name="grave" unicode="`" horiz-adv-x="575" 
d="M115 750h183l98 -150h-136z" />
    <glyph glyph-name="a" unicode="a" horiz-adv-x="589" 
d="M281 561c156 0 257 -66 257 -244v-317h-163v25c-34 -22 -78 -35 -127 -35c-130 0 -223 80 -223 190s93 190 223 190c49 0 92 -13 126 -35c-6 70 -52 96 -121 96c-56 0 -115 -21 -155 -44l-52 110c47 29 138 64 235 64zM283 105c59 0 98 32 98 77s-39 77 -98 77
c-57 0 -98 -32 -98 -77s41 -77 98 -77z" />
    <glyph glyph-name="b" unicode="b" horiz-adv-x="666" 
d="M384 558c147 0 253 -122 253 -283s-106 -283 -253 -283c-70 0 -125 24 -163 70v-62h-160v750h160v-262c38 46 93 70 163 70zM349 132c76 0 128 61 128 143s-52 143 -128 143c-72 0 -127 -61 -127 -143s55 -143 127 -143z" />
    <glyph glyph-name="c" unicode="c" horiz-adv-x="576" 
d="M29 275c0 169 115 286 281 286c104 0 200 -61 239 -147l-128 -66c-24 41 -66 70 -111 70c-75 0 -128 -59 -128 -143s53 -143 128 -143c46 0 88 30 111 71l128 -67c-39 -86 -135 -147 -239 -147c-166 0 -281 117 -281 286z" />
    <glyph glyph-name="d" unicode="d" horiz-adv-x="666" 
d="M445 488v262h160v-750h-160v62c-38 -46 -93 -70 -163 -70c-147 0 -253 122 -253 283s106 283 253 283c70 0 125 -24 163 -70zM317 132c72 0 127 61 127 143s-55 143 -127 143c-76 0 -128 -61 -128 -143s52 -143 128 -143z" />
    <glyph glyph-name="e" unicode="e" horiz-adv-x="607" 
d="M306 560c186 0 292 -170 269 -346h-389c20 -51 64 -82 119 -82c42 0 79 20 103 53l122 -84c-51 -70 -126 -111 -224 -111c-160 0 -277 123 -277 285c0 163 117 285 277 285zM305 416c-60 0 -106 -35 -122 -92h239c-13 50 -52 92 -117 92z" />
    <glyph glyph-name="f" unicode="f" horiz-adv-x="391" 
d="M310 640c-34 0 -58 -25 -58 -75v-15h108v-125h-108v-425h-160v425h-56v125h56v47c0 123 87 181 183 181c58 0 118 -26 166 -58l-60 -106c-26 15 -50 26 -71 26z" />
    <glyph glyph-name="g" unicode="g" horiz-adv-x="607" 
d="M601 557v-145c-32 0 -65 -3 -93 -11c5 -19 8 -40 8 -61c0 -127 -100 -219 -239 -219c-23 0 -46 3 -67 8c-9 -9 -13 -18 -13 -26c0 -16 14 -26 64 -26h101c134 0 204 -55 204 -167c0 -111 -85 -184 -259 -184c-146 0 -246 38 -306 72l64 125c46 -22 128 -53 242 -53
c71 0 99 12 99 35s-15 32 -71 32h-107c-126 0 -198 52 -198 132c0 59 32 95 69 120c-39 38 -61 91 -61 151c0 128 100 220 239 220c64 0 119 -19 160 -52c36 37 93 49 164 49zM277 258c49 0 84 34 84 82s-35 82 -84 82s-84 -34 -84 -82s35 -82 84 -82z" />
    <glyph glyph-name="h" unicode="h" horiz-adv-x="634" 
d="M386 555c128 0 197 -88 197 -246v-309h-160v309c0 68 -41 112 -101 112s-101 -44 -101 -112v-309h-160v750h160v-267c39 47 97 72 165 72z" />
    <glyph glyph-name="i" unicode="i" horiz-adv-x="282" 
d="M141 604c-54 0 -96 42 -96 96s42 96 96 96s96 -42 96 -96s-42 -96 -96 -96zM221 0h-160v550h160v-550z" />
    <glyph glyph-name="j" unicode="j" horiz-adv-x="268" 
d="M127 604c-54 0 -96 42 -96 96c0 53 42 95 96 95s96 -42 96 -95c0 -54 -42 -96 -96 -96zM-119 -208l58 117c14 -6 38 -15 60 -15c29 0 48 20 48 65v591h160v-617c0 -129 -81 -187 -174 -187c-57 0 -111 22 -152 46z" />
    <glyph glyph-name="k" unicode="k" horiz-adv-x="580" 
d="M582 546l-207 -245l211 -297v-4h-190l-175 254v-254h-160v750h160v-405l165 205h196v-4z" />
    <glyph glyph-name="l" unicode="l" horiz-adv-x="282" 
d="M221 0h-160v750h160v-750z" />
    <glyph glyph-name="m" unicode="m" horiz-adv-x="934" 
d="M690 560c114 0 191 -73 191 -203v-357h-160v336c0 54 -34 91 -83 91c-52 0 -87 -37 -87 -91v-336h-160v336c0 54 -34 91 -83 91c-52 0 -87 -37 -87 -91v-336h-160v550h160v-52c34 40 83 62 145 62c73 0 123 -31 151 -85c35 54 94 85 173 85z" />
    <glyph glyph-name="n" unicode="n" horiz-adv-x="634" 
d="M383 560c128 0 200 -81 200 -236v-324h-160v314c0 66 -41 112 -101 112s-101 -46 -101 -112v-314h-160v550h160v-60c39 45 95 70 162 70z" />
    <glyph glyph-name="o" unicode="o" horiz-adv-x="622" 
d="M311 -13c-164 0 -282 119 -282 288s118 288 282 288s282 -119 282 -288s-118 -288 -282 -288zM311 131c72 0 127 61 127 144s-55 144 -127 144s-127 -61 -127 -144s55 -144 127 -144z" />
    <glyph glyph-name="p" unicode="p" horiz-adv-x="666" 
d="M384 558c147 0 253 -122 253 -283s-106 -283 -253 -283c-70 0 -125 24 -163 70v-262h-160v750h160v-62c38 46 93 70 163 70zM349 132c76 0 128 61 128 143s-52 143 -128 143c-72 0 -127 -61 -127 -143s55 -143 127 -143z" />
    <glyph glyph-name="q" unicode="q" horiz-adv-x="666" 
d="M445 488v62h160v-750h-160v262c-38 -46 -93 -70 -163 -70c-147 0 -253 122 -253 283s106 283 253 283c70 0 125 -24 163 -70zM317 132c72 0 127 61 127 143s-55 143 -127 143c-76 0 -128 -61 -128 -143s52 -143 128 -143z" />
    <glyph glyph-name="r" unicode="r" horiz-adv-x="432" 
d="M210 457l4 -1c30 72 106 107 191 99v-151c-89 10 -184 -31 -184 -171v-233h-160v550h135z" />
    <glyph glyph-name="s" unicode="s" horiz-adv-x="508" 
d="M475 435l-131 -57c-17 30 -53 57 -97 57c-41 0 -63 -13 -63 -35c0 -26 18 -39 107 -62c114 -29 190 -70 190 -180c0 -120 -115 -173 -224 -173c-122 0 -209 45 -245 140l131 66c30 -57 75 -75 116 -75s64 14 64 45c0 26 -24 36 -87 53c-85 23 -209 64 -210 177
c1 115 109 173 226 173c113 0 191 -55 223 -129z" />
    <glyph glyph-name="t" unicode="t" horiz-adv-x="385" 
d="M313 140h50v-140h-109c-120 0 -171 63 -171 169v256h-56v125h56v109l160 30v-139h105v-125h-105v-201c0 -65 16 -84 70 -84z" />
    <glyph glyph-name="u" unicode="u" horiz-adv-x="620" 
d="M406 225v325h160l-2 -331c-1 -136 -102 -230 -254 -230s-256 94 -256 230v331h160v-325c0 -56 39 -94 96 -94s96 38 96 94z" />
    <glyph glyph-name="v" unicode="v" horiz-adv-x="546" 
d="M273 236l99 314h166v-5l-198 -545h-134l-198 545v5h166z" />
    <glyph glyph-name="w" unicode="w" horiz-adv-x="826" 
d="M558 263l92 287h167v-5l-197 -545h-95l-112 274l-113 -274h-94l-197 545v5h167l92 -287l109 287h72z" />
    <glyph glyph-name="x" unicode="x" horiz-adv-x="573" 
d="M579 5v-5h-181l-111 171l-112 -171h-181v5l191 282l-169 258v5h180l91 -157l90 157h180v-5l-168 -258z" />
    <glyph glyph-name="y" unicode="y" horiz-adv-x="544" 
d="M275 239l95 311h166v-6l-200 -607c-60 -181 -152 -207 -297 -161l36 129c61 -17 97 -6 114 51l13 44l-196 544v6h171z" />
    <glyph glyph-name="z" unicode="z" horiz-adv-x="498" 
d="M33 550h440v-10l-220 -405h223v-135h-454v10l220 405h-209v135z" />
    <glyph glyph-name="braceleft" unicode="{" horiz-adv-x="411" 
d="M280 210v-105c0 -105 31 -137 107 -146l-15 -120c-169 -2 -262 77 -262 267v80c0 37 -25 48 -88 55v118c63 7 88 21 88 55v94c0 190 93 254 262 252l15 -120c-76 -9 -107 -26 -107 -130v-120c0 -41 -20 -77 -63 -90c43 -15 63 -49 63 -90z" />
    <glyph glyph-name="bar" unicode="|" horiz-adv-x="312" 
d="M76 -200v950h160v-950h-160z" />
    <glyph glyph-name="braceright" unicode="}" horiz-adv-x="411" 
d="M131 108v105c0 41 20 75 63 90c-43 13 -63 49 -63 90v120c0 104 -31 121 -107 130l15 120c169 2 262 -62 262 -252v-94c0 -34 25 -48 88 -55v-118c-63 -7 -88 -18 -88 -55v-80c0 -190 -93 -269 -262 -267l-15 120c76 9 107 41 107 146z" />
    <glyph glyph-name="asciitilde" unicode="~" horiz-adv-x="471" 
d="M412 387v-145c-29 -35 -63 -50 -97 -50c-76 0 -92 83 -159 83c-37 0 -69 -22 -97 -55v143c31 37 63 52 97 52c76 0 92 -83 159 -83c37 0 69 20 97 55z" />
    <glyph glyph-name="exclamdown" unicode="&#xa1;" horiz-adv-x="374" 
d="M187 558c60 0 108 -48 108 -108s-48 -108 -108 -108s-108 48 -108 108s48 108 108 108zM90 -149l21 438h152l21 -438h-194z" />
    <glyph glyph-name="cent" unicode="&#xa2;" horiz-adv-x="586" 
d="M314 216c44 0 83 29 105 67l120 -63c-28 -63 -89 -111 -161 -130v-90h-110v85c-131 20 -219 123 -219 266c0 144 88 247 219 267v82h110v-87c72 -19 133 -68 161 -131l-120 -62c-23 39 -62 66 -105 66c-70 0 -120 -56 -120 -135s50 -135 120 -135z" />
    <glyph glyph-name="sterling" unicode="&#xa3;" horiz-adv-x="674" 
d="M568 181l70 -130c-98 -58 -170 -65 -283 -50c-119 16 -187 10 -263 -10l-39 149c33 8 76 40 78 127h-91v125h77l-5 33c-26 176 72 275 257 275c153 0 220 -70 252 -173l-159 -48c-14 52 -48 81 -93 81c-63 0 -105 -45 -90 -135l6 -33h153v-125h-140
c-1 -49 -12 -89 -34 -118c39 6 83 3 126 -2c83 -9 115 -1 178 34z" />
    <glyph glyph-name="currency" unicode="&#xa4;" horiz-adv-x="646" 
d="M534 350c0 -31 -6 -60 -18 -87l88 -88l-105 -105l-87 88c-27 -12 -57 -19 -89 -19s-62 7 -89 19l-87 -88l-105 105l88 88c-12 27 -18 56 -18 87s6 60 18 87l-88 88l105 105l87 -88c27 12 57 19 89 19s62 -7 89 -19l87 88l105 -105l-88 -88c12 -27 18 -56 18 -87zM323 260
c50 0 90 40 90 90s-40 90 -90 90s-90 -40 -90 -90s40 -90 90 -90z" />
    <glyph glyph-name="yen" unicode="&#xa5;" horiz-adv-x="688" 
d="M483 700h191v-6l-205 -342h108v-98h-149v-39h149v-98h-149v-117h-170v117h-137v98h137v39h-137v98h97l-204 342v6h191l138 -251z" />
    <glyph glyph-name="brokenbar" unicode="&#xa6;" horiz-adv-x="312" 
d="M236 380h-160v370h160v-370zM236 -200h-160v370h160v-370z" />
    <glyph glyph-name="section" unicode="&#xa7;" horiz-adv-x="628" 
d="M298 523l188 -141c118 -88 158 -225 12 -321c48 -112 -47 -235 -167 -235c-137 0 -215 55 -246 167l125 39c23 -56 56 -78 99 -78c62 0 83 53 21 99l-188 141c-118 88 -158 225 -12 321c-48 112 47 235 167 235c137 0 215 -55 246 -167l-125 -39c-23 56 -56 78 -99 78
c-62 0 -83 -53 -21 -99zM264 264l152 -111c57 49 41 91 -52 159l-152 111c-57 -49 -41 -91 52 -159z" />
    <glyph glyph-name="dieresis" unicode="&#xa8;" horiz-adv-x="542" 
d="M164 596c-38 0 -68 30 -68 68s30 68 68 68s68 -30 68 -68s-30 -68 -68 -68zM342 596c-38 0 -68 30 -68 68s30 68 68 68s68 -30 68 -68s-30 -68 -68 -68z" />
    <glyph glyph-name="copyright" unicode="&#xa9;" horiz-adv-x="803" 
d="M401 -5c-198 0 -355 154 -355 354c0 201 157 355 355 355c199 0 356 -154 356 -355c0 -200 -157 -354 -356 -354zM401 108c135 0 239 107 239 241c0 135 -104 242 -239 242c-134 0 -238 -108 -238 -242s104 -241 238 -241zM463 313l92 -52c-24 -54 -83 -88 -149 -88
c-103 0 -173 73 -173 176s70 177 173 177c66 0 125 -35 149 -90l-92 -55c-13 20 -36 34 -57 34c-37 0 -62 -28 -62 -68s25 -68 62 -68c22 0 45 14 57 34z" />
    <glyph glyph-name="ordfeminine" unicode="&#xaa;" horiz-adv-x="425" 
d="M204 708c115 0 190 -49 190 -180v-235h-120v19c-25 -17 -58 -26 -94 -26c-97 0 -165 59 -165 140c0 82 68 141 165 141c36 0 68 -9 93 -26c-4 51 -38 71 -90 71c-41 0 -85 -16 -114 -33l-39 82c35 21 102 47 174 47zM205 371c44 0 73 23 73 57c0 33 -29 57 -73 57
c-42 0 -72 -24 -72 -57c0 -34 30 -57 72 -57zM394 169h-363v78h363v-78z" />
    <glyph glyph-name="guillemotleft" unicode="&#xab;" horiz-adv-x="645" 
d="M13 272v6l265 229l61 -61l-121 -171l121 -171l-61 -61zM278 272v6l265 229l61 -61l-121 -171l121 -171l-61 -61z" />
    <glyph glyph-name="logicalnot" unicode="&#xac;" horiz-adv-x="508" 
d="M59 230v140h390v-257h-155v117h-235z" />
    <glyph glyph-name="uni00AD" unicode="&#xad;" horiz-adv-x="493" 
d="M434 230h-375v140h375v-140z" />
    <glyph glyph-name="registered" unicode="&#xae;" horiz-adv-x="523" 
d="M261 704c121 0 216 -93 216 -215c0 -121 -95 -215 -216 -215c-120 0 -215 94 -215 215c0 122 95 215 215 215zM261 343c82 0 145 65 145 146c0 82 -63 147 -145 147c-81 0 -144 -66 -144 -147s63 -146 144 -146zM347 527c0 -29 -14 -51 -36 -60l34 -71h-58l-28 63h-12
v-63h-60v195h90c42 0 70 -26 70 -64zM271 542h-24v-36h24c11 0 19 8 19 18c0 11 -8 18 -19 18z" />
    <glyph glyph-name="macron" unicode="&#xaf;" horiz-adv-x="496" 
d="M374 610h-278v97h278v-97z" />
    <glyph glyph-name="degree" unicode="&#xb0;" horiz-adv-x="407" 
d="M203 383c-92 0 -162 70 -162 164c0 92 70 162 162 162c93 0 163 -70 163 -162c0 -94 -70 -164 -163 -164zM203 499c28 0 48 20 48 48c0 26 -20 46 -48 46c-27 0 -47 -20 -47 -46c0 -28 20 -48 47 -48z" />
    <glyph glyph-name="plusminus" unicode="&#xb1;" horiz-adv-x="535" 
d="M329 623v-140h141v-124h-141v-140h-123v140h-141v124h141v140h123zM470 55h-405v124h405v-124z" />
    <glyph glyph-name="uni00B2" unicode="&#xb2;" horiz-adv-x="386" 
d="M127 540l-115 20c16 105 91 146 179 146c102 0 166 -58 166 -131c0 -42 -16 -91 -94 -164l-17 -16h121v-97h-346v19l130 133c71 72 87 94 87 119c0 20 -15 36 -47 36c-34 0 -58 -22 -64 -65z" />
    <glyph glyph-name="uni00B3" unicode="&#xb3;" horiz-adv-x="373" 
d="M284 512c42 -12 72 -49 72 -100c0 -71 -57 -121 -182 -121c-89 0 -151 40 -172 73l80 60c22 -23 62 -36 100 -36c36 0 61 15 61 42s-27 37 -82 37h-46v82h22c63 0 86 13 86 31c0 21 -16 29 -51 29c-41 0 -73 -17 -94 -43l-69 60c28 42 76 80 162 80
c113 0 166 -47 166 -110c0 -40 -22 -68 -53 -84z" />
    <glyph glyph-name="acute" unicode="&#xb4;" horiz-adv-x="565" 
d="M114 600l98 150h183l-145 -150h-136z" />
    <glyph glyph-name="uni00B5" unicode="&#xb5;" horiz-adv-x="688" 
d="M583 140h83v-140h-179v19c-28 -16 -62 -24 -101 -24c-68 0 -126 25 -165 72v-267h-160v750h160v-309c0 -68 41 -112 101 -112s101 44 101 112v309h160v-410z" />
    <glyph glyph-name="paragraph" unicode="&#xb6;" horiz-adv-x="678" 
d="M398 -1h-142v318c-123 2 -206 79 -206 192c0 114 83 191 206 191h346v-701h-142v570h-62v-570z" />
    <glyph glyph-name="periodcentered" unicode="&#xb7;" horiz-adv-x="334" 
d="M167 198c-60 0 -108 48 -108 108s48 108 108 108s108 -48 108 -108s-48 -108 -108 -108z" />
    <glyph glyph-name="cedilla" unicode="&#xb8;" horiz-adv-x="468" 
d="M290 9l-18 -60c42 -9 55 -41 55 -64c0 -48 -40 -86 -115 -86c-40 0 -85 14 -116 33l29 60c24 -12 56 -24 77 -24c22 0 30 6 30 21c0 17 -15 27 -50 34l20 94h88v-8z" />
    <glyph glyph-name="uni00B9" unicode="&#xb9;" horiz-adv-x="331" 
d="M253 700v-304h76v-96h-292v96h97v142l-57 -51l-67 72l162 141h81z" />
    <glyph glyph-name="ordmasculine" unicode="&#xba;" horiz-adv-x="452" 
d="M226 283c-121 0 -209 88 -209 214c0 125 88 213 209 213c122 0 209 -88 209 -213c0 -126 -87 -214 -209 -214zM226 390c53 0 94 45 94 107c0 61 -41 106 -94 106s-94 -45 -94 -106c0 -62 41 -107 94 -107zM54 169v78h344v-78h-344z" />
    <glyph glyph-name="guillemotright" unicode="&#xbb;" horiz-adv-x="645" 
d="M102 507l265 -229v-6l-265 -229l-61 61l121 171l-121 171zM367 507l265 -229v-6l-265 -229l-61 61l121 171l-121 171z" />
    <glyph glyph-name="onequarter" unicode="&#xbc;" horiz-adv-x="831" 
d="M256 700h81v-304h76v-96h-292v96h97v142l-57 -51l-67 72zM760 696v-5l-187 -232h-141v13l170 224h158zM740 146h46v-93h-46v-57h-114v57h-211v89l221 254h104v-250zM629 251h-1l-91 -105h92v105zM68 -4v5l187 232h141v-13l-170 -224h-158z" />
    <glyph glyph-name="onehalf" unicode="&#xbd;" horiz-adv-x="835" 
d="M192 398v142l-57 -51l-67 72l162 141h81v-304h76v-96h-292v96h97zM763 700v-5l-187 -232h-141v13l170 224h158zM704 113l-17 -16h121v-97h-346v19l130 133c71 72 87 94 87 119c0 20 -15 36 -47 36c-34 0 -58 -22 -64 -65l-115 20c16 105 91 146 179 146
c102 0 166 -58 166 -131c0 -42 -16 -91 -94 -164zM71 0v5l187 232h141v-13l-170 -224h-158z" />
    <glyph glyph-name="threequarters" unicode="&#xbe;" horiz-adv-x="889" 
d="M423 412c0 -71 -57 -121 -182 -121c-89 0 -151 40 -172 73l80 60c22 -23 62 -36 100 -36c36 0 61 15 61 42s-27 37 -82 37h-46v82h22c63 0 86 13 86 31c0 21 -16 29 -51 29c-41 0 -73 -17 -94 -43l-69 60c28 42 76 80 162 80c113 0 166 -47 166 -110
c0 -40 -22 -68 -53 -84c42 -12 72 -49 72 -100zM822 700v-5l-187 -232h-141v13l170 224h158zM798 150h46v-93h-46v-57h-114v57h-211v89l221 254h104v-250zM687 255h-1l-91 -105h92v105zM130 0v5l187 232h141v-13l-170 -224h-158z" />
    <glyph glyph-name="questiondown" unicode="&#xbf;" horiz-adv-x="483" 
d="M253 558c54 0 98 -43 98 -98c0 -54 -44 -98 -98 -98c-55 0 -98 44 -98 98c0 55 43 98 98 98zM176 315h154c6 -168 -162 -179 -162 -276c0 -35 23 -53 69 -53c41 0 73 29 92 97l151 -37c-24 -134 -123 -207 -263 -205c-136 2 -217 63 -217 179c0 169 179 198 176 295z" />
    <glyph glyph-name="Agrave" unicode="&#xc0;" horiz-adv-x="698" 
d="M335 900l98 -150h-136l-145 150h183zM287 700h124l294 -692v-8h-175l-42 109h-278l-42 -109h-175v8zM349 469l-87 -225h174z" />
    <glyph glyph-name="Aacute" unicode="&#xc1;" horiz-adv-x="698" 
d="M369 900h183l-145 -150h-136zM287 700h124l294 -692v-8h-175l-42 109h-278l-42 -109h-175v8zM349 469l-87 -225h174z" />
    <glyph glyph-name="Acircumflex" unicode="&#xc2;" horiz-adv-x="698" 
d="M422 734l-73 73l-73 -73l-76 72l149 129l149 -129zM287 700h124l294 -692v-8h-175l-42 109h-278l-42 -109h-175v8zM349 469l-87 -225h174z" />
    <glyph glyph-name="Atilde" unicode="&#xc3;" horiz-adv-x="698" 
d="M300 796c-24 0 -43 -15 -57 -34l-52 58c29 37 67 68 113 68c61 0 64 -57 100 -57c24 0 40 15 55 33l52 -58c-25 -39 -68 -67 -110 -67c-63 0 -62 57 -101 57zM287 700h124l294 -692v-8h-175l-42 109h-278l-42 -109h-175v8zM349 469l-87 -225h174z" />
    <glyph glyph-name="Adieresis" unicode="&#xc4;" horiz-adv-x="698" 
d="M260 746c-38 0 -68 30 -68 68s30 68 68 68s68 -30 68 -68s-30 -68 -68 -68zM438 746c-38 0 -68 30 -68 68s30 68 68 68s68 -30 68 -68s-30 -68 -68 -68zM287 700h124l294 -692v-8h-175l-42 109h-278l-42 -109h-175v8zM349 469l-87 -225h174z" />
    <glyph glyph-name="Aring" unicode="&#xc5;" horiz-adv-x="698" 
d="M349 727c-69 0 -121 51 -121 118c0 68 52 119 121 119s121 -51 121 -119c0 -67 -52 -118 -121 -118zM349 898c-28 0 -50 -23 -50 -53s22 -53 50 -53s50 23 50 53s-22 53 -50 53zM287 700h124l294 -692v-8h-175l-42 109h-278l-42 -109h-175v8zM349 469l-87 -225h174z" />
    <glyph glyph-name="AE" unicode="&#xc6;" horiz-adv-x="1072" 
d="M1007 700v-145h-331v-129h271v-139h-271v-142h331v-145h-501v109h-273l-77 -109h-193v9l506 691h538zM506 493l-177 -249h177v249z" />
    <glyph glyph-name="Ccedilla" unicode="&#xc7;" horiz-adv-x="650" 
d="M400 141c58 0 110 25 137 55l101 -111c-48 -55 -118 -87 -204 -95l-16 -52c42 -9 55 -41 55 -64c0 -48 -40 -86 -115 -86c-40 0 -85 14 -116 33l29 60c24 -12 56 -24 77 -24c22 0 30 6 30 21c0 17 -15 27 -50 34l17 79c-179 21 -309 167 -309 359c0 208 152 362 354 362
c107 0 192 -33 248 -97l-101 -111c-27 30 -79 55 -137 55c-113 0 -199 -87 -199 -209s86 -209 199 -209z" />
    <glyph glyph-name="Egrave" unicode="&#xc8;" horiz-adv-x="642" 
d="M143 900h183l98 -150h-136zM577 700v-145h-331v-129h271v-139h-271v-142h331v-145h-501v700h501z" />
    <glyph glyph-name="Eacute" unicode="&#xc9;" horiz-adv-x="642" 
d="M262 750l98 150h183l-145 -150h-136zM577 700v-145h-331v-129h271v-139h-271v-142h331v-145h-501v700h501z" />
    <glyph glyph-name="Ecircumflex" unicode="&#xca;" horiz-adv-x="642" 
d="M191 806l149 129l149 -129l-76 -72l-73 73l-73 -73zM577 700v-145h-331v-129h271v-139h-271v-142h331v-145h-501v700h501z" />
    <glyph glyph-name="Edieresis" unicode="&#xcb;" horiz-adv-x="642" 
d="M251 746c-38 0 -68 30 -68 68s30 68 68 68s68 -30 68 -68s-30 -68 -68 -68zM429 746c-38 0 -68 30 -68 68s30 68 68 68s68 -30 68 -68s-30 -68 -68 -68zM577 700v-145h-331v-129h271v-139h-271v-142h331v-145h-501v700h501z" />
    <glyph glyph-name="Igrave" unicode="&#xcc;" horiz-adv-x="322" 
d="M-36 900h183l98 -150h-136zM76 0v700h170v-700h-170z" />
    <glyph glyph-name="Iacute" unicode="&#xcd;" horiz-adv-x="322" 
d="M83 750l98 150h183l-145 -150h-136zM76 0v700h170v-700h-170z" />
    <glyph glyph-name="Icircumflex" unicode="&#xce;" horiz-adv-x="322" 
d="M12 806l149 129l149 -129l-76 -72l-73 73l-73 -73zM76 0v700h170v-700h-170z" />
    <glyph glyph-name="Idieresis" unicode="&#xcf;" horiz-adv-x="322" 
d="M72 746c-38 0 -68 30 -68 68s30 68 68 68s68 -30 68 -68s-30 -68 -68 -68zM250 746c-38 0 -68 30 -68 68s30 68 68 68s68 -30 68 -68s-30 -68 -68 -68zM76 0v700h170v-700h-170z" />
    <glyph glyph-name="Eth" unicode="&#xd0;" horiz-adv-x="735" 
d="M76 700h248c237 0 375 -127 375 -350s-138 -350 -375 -350h-248v287h-58v126h58v287zM246 145h86c123 0 197 74 197 205s-74 205 -197 205h-86v-142h104v-126h-104v-142z" />
    <glyph glyph-name="Ntilde" unicode="&#xd1;" horiz-adv-x="785" 
d="M287 762l-52 58c29 37 67 68 113 68c61 0 64 -57 100 -57c24 0 40 15 55 33l52 -58c-25 -39 -68 -67 -110 -67c-63 0 -62 57 -101 57c-24 0 -43 -15 -57 -34zM709 700v-700h-123l-343 400v-400h-167v700h123l343 -400v400h167z" />
    <glyph glyph-name="Ograve" unicode="&#xd2;" horiz-adv-x="796" 
d="M201 912h183l98 -150h-136zM398 -12c-205 0 -362 155 -362 362s157 362 362 362s362 -155 362 -362s-157 -362 -362 -362zM398 148c109 0 192 86 192 202s-83 202 -192 202s-192 -86 -192 -202s83 -202 192 -202z" />
    <glyph glyph-name="Oacute" unicode="&#xd3;" horiz-adv-x="796" 
d="M320 762l98 150h183l-145 -150h-136zM398 -12c-205 0 -362 155 -362 362s157 362 362 362s362 -155 362 -362s-157 -362 -362 -362zM398 148c109 0 192 86 192 202s-83 202 -192 202s-192 -86 -192 -202s83 -202 192 -202z" />
    <glyph glyph-name="Ocircumflex" unicode="&#xd4;" horiz-adv-x="796" 
d="M249 818l149 129l149 -129l-76 -72l-73 73l-73 -73zM398 -12c-205 0 -362 155 -362 362s157 362 362 362s362 -155 362 -362s-157 -362 -362 -362zM398 148c109 0 192 86 192 202s-83 202 -192 202s-192 -86 -192 -202s83 -202 192 -202z" />
    <glyph glyph-name="Otilde" unicode="&#xd5;" horiz-adv-x="796" 
d="M292 774l-52 58c29 37 67 68 113 68c61 0 64 -57 100 -57c24 0 40 15 55 33l52 -58c-25 -39 -68 -67 -110 -67c-63 0 -62 57 -101 57c-24 0 -43 -15 -57 -34zM398 -12c-205 0 -362 155 -362 362s157 362 362 362s362 -155 362 -362s-157 -362 -362 -362zM398 148
c109 0 192 86 192 202s-83 202 -192 202s-192 -86 -192 -202s83 -202 192 -202z" />
    <glyph glyph-name="Odieresis" unicode="&#xd6;" horiz-adv-x="796" 
d="M309 758c-38 0 -68 30 -68 68s30 68 68 68s68 -30 68 -68s-30 -68 -68 -68zM487 758c-38 0 -68 30 -68 68s30 68 68 68s68 -30 68 -68s-30 -68 -68 -68zM398 -12c-205 0 -362 155 -362 362s157 362 362 362s362 -155 362 -362s-157 -362 -362 -362zM398 148
c109 0 192 86 192 202s-83 202 -192 202s-192 -86 -192 -202s83 -202 192 -202z" />
    <glyph glyph-name="multiply" unicode="&#xd7;" horiz-adv-x="510" 
d="M368 512l99 -99l-113 -113l113 -114l-99 -99l-113 113l-113 -113l-99 99l113 114l-113 113l99 99l113 -113z" />
    <glyph glyph-name="Oslash" unicode="&#xd8;" horiz-adv-x="796" 
d="M752 700l-82 -106c56 -64 90 -148 90 -244c0 -207 -157 -362 -362 -362c-60 0 -116 13 -165 37l-20 -25h-169l82 106c-56 64 -90 148 -90 244c0 207 157 362 362 362c60 0 117 -13 166 -38l20 26h168zM206 350c0 -39 10 -75 27 -106l229 297c-20 7 -41 11 -64 11
c-109 0 -192 -86 -192 -202zM398 148c109 0 192 86 192 202c0 39 -10 75 -26 105l-229 -297c20 -6 41 -10 63 -10z" />
    <glyph glyph-name="Ugrave" unicode="&#xd9;" horiz-adv-x="760" 
d="M183 900h183l98 -150h-136zM519 292v408h170v-419c0 -180 -116 -293 -309 -293s-306 113 -307 293l-2 419h170v-408c0 -91 51 -146 139 -146s139 55 139 146z" />
    <glyph glyph-name="Uacute" unicode="&#xda;" horiz-adv-x="760" 
d="M302 750l98 150h183l-145 -150h-136zM519 292v408h170v-419c0 -180 -116 -293 -309 -293s-306 113 -307 293l-2 419h170v-408c0 -91 51 -146 139 -146s139 55 139 146z" />
    <glyph glyph-name="Ucircumflex" unicode="&#xdb;" horiz-adv-x="760" 
d="M231 806l149 129l149 -129l-76 -72l-73 73l-73 -73zM519 292v408h170v-419c0 -180 -116 -293 -309 -293s-306 113 -307 293l-2 419h170v-408c0 -91 51 -146 139 -146s139 55 139 146z" />
    <glyph glyph-name="Udieresis" unicode="&#xdc;" horiz-adv-x="760" 
d="M291 746c-38 0 -68 30 -68 68s30 68 68 68s68 -30 68 -68s-30 -68 -68 -68zM469 746c-38 0 -68 30 -68 68s30 68 68 68s68 -30 68 -68s-30 -68 -68 -68zM519 292v408h170v-419c0 -180 -116 -293 -309 -293s-306 113 -307 293l-2 419h170v-408c0 -91 51 -146 139 -146
s139 55 139 146z" />
    <glyph glyph-name="Yacute" unicode="&#xdd;" horiz-adv-x="664" 
d="M254 750l98 150h183l-145 -150h-136zM331 449l140 251h191v-6l-246 -410v-284h-170v284l-244 410v6h191z" />
    <glyph glyph-name="Thorn" unicode="&#xde;" horiz-adv-x="615" 
d="M246 567h96c146 0 237 -78 237 -217s-91 -217 -237 -217h-96v-133h-170v700h170v-133zM246 278h85c49 0 78 27 78 72s-29 72 -78 72h-85v-144z" />
    <glyph glyph-name="germandbls" unicode="&#xdf;" horiz-adv-x="599" 
d="M437 399c75 -18 133 -84 133 -196c0 -117 -84 -206 -196 -206c-44 0 -86 5 -115 14l27 134c14 -3 30 -5 48 -5c48 0 77 33 77 84c0 49 -32 83 -84 83h-43v132h1c32 0 55 23 55 60c0 34 -24 58 -57 58s-64 -20 -64 -76v-481h-158v472c0 152 82 232 218 232
s217 -72 217 -181c0 -59 -23 -105 -59 -124z" />
    <glyph glyph-name="agrave" unicode="&#xe0;" horiz-adv-x="589" 
d="M288 761l98 -150h-136l-145 150h183zM281 561c156 0 257 -66 257 -244v-317h-163v25c-34 -22 -78 -35 -127 -35c-130 0 -223 80 -223 190s93 190 223 190c49 0 92 -13 126 -35c-6 70 -52 96 -121 96c-56 0 -115 -21 -155 -44l-52 110c47 29 138 64 235 64zM283 105
c59 0 98 32 98 77s-39 77 -98 77c-57 0 -98 -32 -98 -77s41 -77 98 -77z" />
    <glyph glyph-name="aacute" unicode="&#xe1;" horiz-adv-x="589" 
d="M322 761h183l-145 -150h-136zM281 561c156 0 257 -66 257 -244v-317h-163v25c-34 -22 -78 -35 -127 -35c-130 0 -223 80 -223 190s93 190 223 190c49 0 92 -13 126 -35c-6 70 -52 96 -121 96c-56 0 -115 -21 -155 -44l-52 110c47 29 138 64 235 64zM283 105
c59 0 98 32 98 77s-39 77 -98 77c-57 0 -98 -32 -98 -77s41 -77 98 -77z" />
    <glyph glyph-name="acircumflex" unicode="&#xe2;" horiz-adv-x="589" 
d="M375 595l-73 73l-73 -73l-76 72l149 129l149 -129zM281 561c156 0 257 -66 257 -244v-317h-163v25c-34 -22 -78 -35 -127 -35c-130 0 -223 80 -223 190s93 190 223 190c49 0 92 -13 126 -35c-6 70 -52 96 -121 96c-56 0 -115 -21 -155 -44l-52 110c47 29 138 64 235 64z
M283 105c59 0 98 32 98 77s-39 77 -98 77c-57 0 -98 -32 -98 -77s41 -77 98 -77z" />
    <glyph glyph-name="atilde" unicode="&#xe3;" horiz-adv-x="589" 
d="M253 657c-24 0 -43 -15 -57 -34l-52 58c29 37 67 68 113 68c61 0 64 -57 100 -57c24 0 40 15 55 33l52 -58c-25 -39 -68 -67 -110 -67c-63 0 -62 57 -101 57zM281 561c156 0 257 -66 257 -244v-317h-163v25c-34 -22 -78 -35 -127 -35c-130 0 -223 80 -223 190
s93 190 223 190c49 0 92 -13 126 -35c-6 70 -52 96 -121 96c-56 0 -115 -21 -155 -44l-52 110c47 29 138 64 235 64zM283 105c59 0 98 32 98 77s-39 77 -98 77c-57 0 -98 -32 -98 -77s41 -77 98 -77z" />
    <glyph glyph-name="adieresis" unicode="&#xe4;" horiz-adv-x="589" 
d="M213 607c-38 0 -68 30 -68 68s30 68 68 68s68 -30 68 -68s-30 -68 -68 -68zM391 607c-38 0 -68 30 -68 68s30 68 68 68s68 -30 68 -68s-30 -68 -68 -68zM281 561c156 0 257 -66 257 -244v-317h-163v25c-34 -22 -78 -35 -127 -35c-130 0 -223 80 -223 190s93 190 223 190
c49 0 92 -13 126 -35c-6 70 -52 96 -121 96c-56 0 -115 -21 -155 -44l-52 110c47 29 138 64 235 64zM283 105c59 0 98 32 98 77s-39 77 -98 77c-57 0 -98 -32 -98 -77s41 -77 98 -77z" />
    <glyph glyph-name="aring" unicode="&#xe5;" horiz-adv-x="589" 
d="M302 588c-69 0 -121 51 -121 118c0 68 52 119 121 119s121 -51 121 -119c0 -67 -52 -118 -121 -118zM302 759c-28 0 -50 -23 -50 -53s22 -53 50 -53s50 23 50 53s-22 53 -50 53zM281 561c156 0 257 -66 257 -244v-317h-163v25c-34 -22 -78 -35 -127 -35
c-130 0 -223 80 -223 190s93 190 223 190c49 0 92 -13 126 -35c-6 70 -52 96 -121 96c-56 0 -115 -21 -155 -44l-52 110c47 29 138 64 235 64zM283 105c59 0 98 32 98 77s-39 77 -98 77c-57 0 -98 -32 -98 -77s41 -77 98 -77z" />
    <glyph glyph-name="ae" unicode="&#xe6;" horiz-adv-x="972" 
d="M671 560c186 0 292 -170 269 -346h-389c20 -51 64 -82 119 -82c42 0 79 20 103 53l122 -84c-51 -70 -126 -111 -224 -111c-49 0 -94 12 -133 32v-22h-163v25c-34 -22 -78 -35 -127 -35c-130 0 -223 80 -223 190s93 190 223 190c49 0 92 -13 126 -35c-6 70 -52 96 -121 96
c-56 0 -115 -21 -155 -44l-52 110c47 29 138 64 235 64c88 0 158 -21 203 -71c48 44 113 70 187 70zM670 416c-60 0 -106 -35 -122 -92h239c-13 50 -52 92 -117 92zM283 105c59 0 98 32 98 77s-39 77 -98 77c-57 0 -98 -32 -98 -77s41 -77 98 -77z" />
    <glyph glyph-name="ccedilla" unicode="&#xe7;" horiz-adv-x="576" 
d="M310 132c46 0 88 30 111 71l128 -67c-32 -71 -102 -124 -184 -141l-17 -57c42 -9 55 -41 55 -64c0 -48 -40 -86 -115 -86c-40 0 -85 14 -116 33l29 60c24 -12 56 -24 77 -24c22 0 30 6 30 21c0 17 -15 27 -50 34l17 79c-147 15 -246 127 -246 284c0 169 115 286 281 286
c104 0 200 -61 239 -147l-128 -66c-24 41 -66 70 -111 70c-75 0 -128 -59 -128 -143s53 -143 128 -143z" />
    <glyph glyph-name="egrave" unicode="&#xe8;" horiz-adv-x="607" 
d="M292 760l98 -150h-136l-145 150h183zM306 560c186 0 292 -170 269 -346h-389c20 -51 64 -82 119 -82c42 0 79 20 103 53l122 -84c-51 -70 -126 -111 -224 -111c-160 0 -277 123 -277 285c0 163 117 285 277 285zM305 416c-60 0 -106 -35 -122 -92h239
c-13 50 -52 92 -117 92z" />
    <glyph glyph-name="eacute" unicode="&#xe9;" horiz-adv-x="607" 
d="M326 760h183l-145 -150h-136zM306 560c186 0 292 -170 269 -346h-389c20 -51 64 -82 119 -82c42 0 79 20 103 53l122 -84c-51 -70 -126 -111 -224 -111c-160 0 -277 123 -277 285c0 163 117 285 277 285zM305 416c-60 0 -106 -35 -122 -92h239c-13 50 -52 92 -117 92z
" />
    <glyph glyph-name="ecircumflex" unicode="&#xea;" horiz-adv-x="607" 
d="M379 594l-73 73l-73 -73l-76 72l149 129l149 -129zM306 560c186 0 292 -170 269 -346h-389c20 -51 64 -82 119 -82c42 0 79 20 103 53l122 -84c-51 -70 -126 -111 -224 -111c-160 0 -277 123 -277 285c0 163 117 285 277 285zM305 416c-60 0 -106 -35 -122 -92h239
c-13 50 -52 92 -117 92z" />
    <glyph glyph-name="edieresis" unicode="&#xeb;" horiz-adv-x="607" 
d="M217 606c-38 0 -68 30 -68 68s30 68 68 68s68 -30 68 -68s-30 -68 -68 -68zM395 606c-38 0 -68 30 -68 68s30 68 68 68s68 -30 68 -68s-30 -68 -68 -68zM306 560c186 0 292 -170 269 -346h-389c20 -51 64 -82 119 -82c42 0 79 20 103 53l122 -84
c-51 -70 -126 -111 -224 -111c-160 0 -277 123 -277 285c0 163 117 285 277 285zM305 416c-60 0 -106 -35 -122 -92h239c-13 50 -52 92 -117 92z" />
    <glyph glyph-name="igrave" unicode="&#xec;" horiz-adv-x="282" 
d="M-56 750h183l98 -150h-136zM221 0h-160v550h160v-550z" />
    <glyph glyph-name="iacute" unicode="&#xed;" horiz-adv-x="282" 
d="M63 600l98 150h183l-145 -150h-136zM221 0h-160v550h160v-550z" />
    <glyph glyph-name="icircumflex" unicode="&#xee;" horiz-adv-x="282" 
d="M-8 656l149 129l149 -129l-76 -72l-73 73l-73 -73zM221 0h-160v550h160v-550z" />
    <glyph glyph-name="idieresis" unicode="&#xef;" horiz-adv-x="282" 
d="M52 596c-38 0 -68 30 -68 68s30 68 68 68s68 -30 68 -68s-30 -68 -68 -68zM230 596c-38 0 -68 30 -68 68s30 68 68 68s68 -30 68 -68s-30 -68 -68 -68zM221 0h-160v550h160v-550z" />
    <glyph glyph-name="eth" unicode="&#xf0;" horiz-adv-x="579" 
d="M429 668l-60 -47c116 -105 181 -238 181 -384c0 -144 -116 -248 -258 -248c-148 0 -263 101 -263 242c0 132 103 223 220 223c34 0 59 -4 80 -12c-24 35 -50 63 -78 86l-91 -72l-74 87l61 49c-23 11 -47 21 -72 31l69 138c46 -20 90 -42 129 -67l81 65zM290 136
c54 0 96 41 96 94c0 55 -42 98 -96 98s-97 -43 -97 -98c0 -53 43 -94 97 -94z" />
    <glyph glyph-name="ntilde" unicode="&#xf1;" horiz-adv-x="634" 
d="M284 646c-24 0 -43 -15 -57 -34l-52 58c29 37 67 68 113 68c61 0 64 -57 100 -57c24 0 40 15 55 33l52 -58c-25 -39 -68 -67 -110 -67c-63 0 -62 57 -101 57zM383 560c128 0 200 -81 200 -236v-324h-160v314c0 66 -41 112 -101 112s-101 -46 -101 -112v-314h-160v550h160
v-60c39 45 95 70 162 70z" />
    <glyph glyph-name="ograve" unicode="&#xf2;" horiz-adv-x="622" 
d="M114 763h183l98 -150h-136zM311 -13c-164 0 -282 119 -282 288s118 288 282 288s282 -119 282 -288s-118 -288 -282 -288zM311 131c72 0 127 61 127 144s-55 144 -127 144s-127 -61 -127 -144s55 -144 127 -144z" />
    <glyph glyph-name="oacute" unicode="&#xf3;" horiz-adv-x="622" 
d="M233 613l98 150h183l-145 -150h-136zM311 -13c-164 0 -282 119 -282 288s118 288 282 288s282 -119 282 -288s-118 -288 -282 -288zM311 131c72 0 127 61 127 144s-55 144 -127 144s-127 -61 -127 -144s55 -144 127 -144z" />
    <glyph glyph-name="ocircumflex" unicode="&#xf4;" horiz-adv-x="622" 
d="M162 669l149 129l149 -129l-76 -72l-73 73l-73 -73zM311 -13c-164 0 -282 119 -282 288s118 288 282 288s282 -119 282 -288s-118 -288 -282 -288zM311 131c72 0 127 61 127 144s-55 144 -127 144s-127 -61 -127 -144s55 -144 127 -144z" />
    <glyph glyph-name="otilde" unicode="&#xf5;" horiz-adv-x="622" 
d="M205 625l-52 58c29 37 67 68 113 68c61 0 64 -57 100 -57c24 0 40 15 55 33l52 -58c-25 -39 -68 -67 -110 -67c-63 0 -62 57 -101 57c-24 0 -43 -15 -57 -34zM311 -13c-164 0 -282 119 -282 288s118 288 282 288s282 -119 282 -288s-118 -288 -282 -288zM311 131
c72 0 127 61 127 144s-55 144 -127 144s-127 -61 -127 -144s55 -144 127 -144z" />
    <glyph glyph-name="odieresis" unicode="&#xf6;" horiz-adv-x="622" 
d="M222 609c-38 0 -68 30 -68 68s30 68 68 68s68 -30 68 -68s-30 -68 -68 -68zM400 609c-38 0 -68 30 -68 68s30 68 68 68s68 -30 68 -68s-30 -68 -68 -68zM311 -13c-164 0 -282 119 -282 288s118 288 282 288s282 -119 282 -288s-118 -288 -282 -288zM311 131
c72 0 127 61 127 144s-55 144 -127 144s-127 -61 -127 -144s55 -144 127 -144z" />
    <glyph glyph-name="divide" unicode="&#xf7;" horiz-adv-x="646" 
d="M323 419c-52 0 -94 42 -94 94s42 94 94 94s94 -42 94 -94s-42 -94 -94 -94zM587 230h-528v140h528v-140zM323 -7c-52 0 -94 42 -94 94s42 94 94 94s94 -42 94 -94s-42 -94 -94 -94z" />
    <glyph glyph-name="oslash" unicode="&#xf8;" horiz-adv-x="622" 
d="M590 550l-63 -82c42 -50 66 -116 66 -193c0 -169 -118 -288 -282 -288c-48 0 -93 10 -131 29l-13 -16h-133l62 81c-42 50 -67 117 -67 194c0 169 118 288 282 288c49 0 95 -11 134 -30l13 17h132zM184 275c0 -24 4 -45 12 -64l156 201c-13 5 -27 7 -41 7
c-72 0 -127 -61 -127 -144zM311 131c72 0 127 61 127 144c0 23 -4 44 -12 62l-153 -200c12 -4 24 -6 38 -6z" />
    <glyph glyph-name="ugrave" unicode="&#xf9;" horiz-adv-x="620" 
d="M113 750h183l98 -150h-136zM406 225v325h160l-2 -331c-1 -136 -102 -230 -254 -230s-256 94 -256 230v331h160v-325c0 -56 39 -94 96 -94s96 38 96 94z" />
    <glyph glyph-name="uacute" unicode="&#xfa;" horiz-adv-x="620" 
d="M232 600l98 150h183l-145 -150h-136zM406 225v325h160l-2 -331c-1 -136 -102 -230 -254 -230s-256 94 -256 230v331h160v-325c0 -56 39 -94 96 -94s96 38 96 94z" />
    <glyph glyph-name="ucircumflex" unicode="&#xfb;" horiz-adv-x="620" 
d="M161 656l149 129l149 -129l-76 -72l-73 73l-73 -73zM406 225v325h160l-2 -331c-1 -136 -102 -230 -254 -230s-256 94 -256 230v331h160v-325c0 -56 39 -94 96 -94s96 38 96 94z" />
    <glyph glyph-name="udieresis" unicode="&#xfc;" horiz-adv-x="620" 
d="M221 596c-38 0 -68 30 -68 68s30 68 68 68s68 -30 68 -68s-30 -68 -68 -68zM399 596c-38 0 -68 30 -68 68s30 68 68 68s68 -30 68 -68s-30 -68 -68 -68zM406 225v325h160l-2 -331c-1 -136 -102 -230 -254 -230s-256 94 -256 230v331h160v-325c0 -56 39 -94 96 -94
s96 38 96 94z" />
    <glyph glyph-name="yacute" unicode="&#xfd;" horiz-adv-x="544" 
d="M293 750h183l-145 -150h-136zM275 239l95 311h166v-6l-200 -607c-60 -181 -152 -207 -297 -161l36 129c61 -17 97 -6 114 51l13 44l-196 544v6h171z" />
    <glyph glyph-name="thorn" unicode="&#xfe;" horiz-adv-x="666" 
d="M384 558c147 0 253 -122 253 -283s-106 -283 -253 -283c-70 0 -125 24 -163 70v-262h-160v951h160v-263c38 46 93 70 163 70zM349 132c76 0 128 61 128 143s-52 143 -128 143c-72 0 -127 -61 -127 -143s55 -143 127 -143z" />
    <glyph glyph-name="ydieresis" unicode="&#xff;" horiz-adv-x="544" 
d="M184 596c-38 0 -68 30 -68 68s30 68 68 68s68 -30 68 -68s-30 -68 -68 -68zM362 596c-38 0 -68 30 -68 68s30 68 68 68s68 -30 68 -68s-30 -68 -68 -68zM275 239l95 311h166v-6l-200 -607c-60 -181 -152 -207 -297 -161l36 129c61 -17 97 -6 114 51l13 44l-196 544v6h171
z" />
    <glyph glyph-name="Amacron" unicode="&#x100;" horiz-adv-x="698" 
d="M210 857h278v-97h-278v97zM287 700h124l294 -692v-8h-175l-42 109h-278l-42 -109h-175v8zM349 469l-87 -225h174z" />
    <glyph glyph-name="amacron" unicode="&#x101;" horiz-adv-x="589" 
d="M163 718h278v-97h-278v97zM281 561c156 0 257 -66 257 -244v-317h-163v25c-34 -22 -78 -35 -127 -35c-130 0 -223 80 -223 190s93 190 223 190c49 0 92 -13 126 -35c-6 70 -52 96 -121 96c-56 0 -115 -21 -155 -44l-52 110c47 29 138 64 235 64zM283 105
c59 0 98 32 98 77s-39 77 -98 77c-57 0 -98 -32 -98 -77s41 -77 98 -77z" />
    <glyph glyph-name="Abreve" unicode="&#x102;" horiz-adv-x="698" 
d="M349 732c-81 0 -134 53 -142 143l104 15c1 -41 15 -63 38 -63s37 22 38 63l104 -15c-8 -90 -61 -143 -142 -143zM287 700h124l294 -692v-8h-175l-42 109h-278l-42 -109h-175v8zM349 469l-87 -225h174z" />
    <glyph glyph-name="abreve" unicode="&#x103;" horiz-adv-x="589" 
d="M302 593c-81 0 -134 53 -142 143l104 15c1 -41 15 -63 38 -63s37 22 38 63l104 -15c-8 -90 -61 -143 -142 -143zM281 561c156 0 257 -66 257 -244v-317h-163v25c-34 -22 -78 -35 -127 -35c-130 0 -223 80 -223 190s93 190 223 190c49 0 92 -13 126 -35
c-6 70 -52 96 -121 96c-56 0 -115 -21 -155 -44l-52 110c47 29 138 64 235 64zM283 105c59 0 98 32 98 77s-39 77 -98 77c-57 0 -98 -32 -98 -77s41 -77 98 -77z" />
    <glyph glyph-name="Aogonek" unicode="&#x104;" horiz-adv-x="698" 
d="M707 -108l64 -26c-21 -62 -69 -94 -134 -94c-72 0 -116 46 -116 109c0 48 28 90 64 119h-55l-42 109h-278l-42 -109h-175v8l294 692h124l294 -692v-8c-54 -23 -86 -69 -86 -100c0 -30 14 -44 40 -44s39 18 48 36zM349 469l-87 -225h174z" />
    <glyph glyph-name="aogonek" unicode="&#x105;" horiz-adv-x="589" 
d="M540 -108l64 -26c-21 -62 -69 -94 -134 -94c-72 0 -116 46 -116 109c0 48 28 90 64 119h-43v25c-34 -22 -78 -35 -127 -35c-130 0 -223 80 -223 190s93 190 223 190c49 0 92 -13 126 -35c-6 70 -52 96 -121 96c-56 0 -115 -21 -155 -44l-52 110c47 29 138 64 235 64
c156 0 257 -66 257 -244v-317c-54 -23 -86 -69 -86 -100c0 -30 14 -44 40 -44s39 18 48 36zM283 105c59 0 98 32 98 77s-39 77 -98 77c-57 0 -98 -32 -98 -77s41 -77 98 -77z" />
    <glyph glyph-name="Cacute" unicode="&#x106;" horiz-adv-x="650" 
d="M312 761l98 150h183l-145 -150h-136zM400 141c58 0 110 25 137 55l101 -111c-56 -64 -141 -97 -248 -97c-202 0 -354 154 -354 362s152 362 354 362c107 0 192 -33 248 -97l-101 -111c-27 30 -79 55 -137 55c-113 0 -199 -87 -199 -209s86 -209 199 -209z" />
    <glyph glyph-name="cacute" unicode="&#x107;" horiz-adv-x="576" 
d="M232 611l98 150h183l-145 -150h-136zM29 275c0 169 115 286 281 286c104 0 200 -61 239 -147l-128 -66c-24 41 -66 70 -111 70c-75 0 -128 -59 -128 -143s53 -143 128 -143c46 0 88 30 111 71l128 -67c-39 -86 -135 -147 -239 -147c-166 0 -281 117 -281 286z" />
    <glyph glyph-name="Ccircumflex" unicode="&#x108;" horiz-adv-x="650" 
d="M241 817l149 129l149 -129l-76 -72l-73 73l-73 -73zM400 141c58 0 110 25 137 55l101 -111c-56 -64 -141 -97 -248 -97c-202 0 -354 154 -354 362s152 362 354 362c107 0 192 -33 248 -97l-101 -111c-27 30 -79 55 -137 55c-113 0 -199 -87 -199 -209s86 -209 199 -209z
" />
    <glyph glyph-name="ccircumflex" unicode="&#x109;" horiz-adv-x="576" 
d="M161 667l149 129l149 -129l-76 -72l-73 73l-73 -73zM29 275c0 169 115 286 281 286c104 0 200 -61 239 -147l-128 -66c-24 41 -66 70 -111 70c-75 0 -128 -59 -128 -143s53 -143 128 -143c46 0 88 30 111 71l128 -67c-39 -86 -135 -147 -239 -147
c-166 0 -281 117 -281 286z" />
    <glyph glyph-name="Cdotaccent" unicode="&#x10a;" horiz-adv-x="650" 
d="M390 757c-38 0 -68 30 -68 68s30 68 68 68s68 -30 68 -68s-30 -68 -68 -68zM400 141c58 0 110 25 137 55l101 -111c-56 -64 -141 -97 -248 -97c-202 0 -354 154 -354 362s152 362 354 362c107 0 192 -33 248 -97l-101 -111c-27 30 -79 55 -137 55
c-113 0 -199 -87 -199 -209s86 -209 199 -209z" />
    <glyph glyph-name="cdotaccent" unicode="&#x10b;" horiz-adv-x="576" 
d="M310 607c-38 0 -68 30 -68 68s30 68 68 68s68 -30 68 -68s-30 -68 -68 -68zM29 275c0 169 115 286 281 286c104 0 200 -61 239 -147l-128 -66c-24 41 -66 70 -111 70c-75 0 -128 -59 -128 -143s53 -143 128 -143c46 0 88 30 111 71l128 -67c-39 -86 -135 -147 -239 -147
c-166 0 -281 117 -281 286z" />
    <glyph glyph-name="Ccaron" unicode="&#x10c;" horiz-adv-x="650" 
d="M539 874l-149 -129l-149 129l76 72l73 -73l73 73zM400 141c58 0 110 25 137 55l101 -111c-56 -64 -141 -97 -248 -97c-202 0 -354 154 -354 362s152 362 354 362c107 0 192 -33 248 -97l-101 -111c-27 30 -79 55 -137 55c-113 0 -199 -87 -199 -209s86 -209 199 -209z
" />
    <glyph glyph-name="ccaron" unicode="&#x10d;" horiz-adv-x="576" 
d="M459 724l-149 -129l-149 129l76 72l73 -73l73 73zM29 275c0 169 115 286 281 286c104 0 200 -61 239 -147l-128 -66c-24 41 -66 70 -111 70c-75 0 -128 -59 -128 -143s53 -143 128 -143c46 0 88 30 111 71l128 -67c-39 -86 -135 -147 -239 -147c-166 0 -281 117 -281 286
z" />
    <glyph glyph-name="Dcaron" unicode="&#x10e;" horiz-adv-x="735" 
d="M505 863l-149 -129l-149 129l76 72l73 -73l73 73zM76 700h248c237 0 375 -127 375 -350s-138 -350 -375 -350h-248v700zM246 145h86c123 0 197 74 197 205s-74 205 -197 205h-86v-410z" />
    <glyph glyph-name="dcaron" unicode="&#x10f;" horiz-adv-x="799" 
d="M673 502v249h127v-102l-44 -147h-83zM445 488v262h160v-750h-160v62c-38 -46 -93 -70 -163 -70c-147 0 -253 122 -253 283s106 283 253 283c70 0 125 -24 163 -70zM317 132c72 0 127 61 127 143s-55 143 -127 143c-76 0 -128 -61 -128 -143s52 -143 128 -143z" />
    <glyph glyph-name="Dcroat" unicode="&#x110;" horiz-adv-x="735" 
d="M76 700h248c237 0 375 -127 375 -350s-138 -350 -375 -350h-248v287h-58v126h58v287zM246 145h86c123 0 197 74 197 205s-74 205 -197 205h-86v-142h104v-126h-104v-142z" />
    <glyph glyph-name="dcroat" unicode="&#x111;" horiz-adv-x="666" 
d="M605 696h54v-114h-54v-582h-160v62c-38 -46 -93 -70 -163 -70c-147 0 -253 122 -253 283s106 283 253 283c70 0 125 -24 163 -70v94h-107v114h107v54h160v-54zM317 132c72 0 127 61 127 143s-55 143 -127 143c-76 0 -128 -61 -128 -143s52 -143 128 -143z" />
    <glyph glyph-name="Emacron" unicode="&#x112;" horiz-adv-x="642" 
d="M479 760h-278v97h278v-97zM577 700v-145h-331v-129h271v-139h-271v-142h331v-145h-501v700h501z" />
    <glyph glyph-name="emacron" unicode="&#x113;" horiz-adv-x="607" 
d="M167 717h278v-97h-278v97zM306 560c186 0 292 -170 269 -346h-389c20 -51 64 -82 119 -82c42 0 79 20 103 53l122 -84c-51 -70 -126 -111 -224 -111c-160 0 -277 123 -277 285c0 163 117 285 277 285zM305 416c-60 0 -106 -35 -122 -92h239c-13 50 -52 92 -117 92z" />
    <glyph glyph-name="Ebreve" unicode="&#x114;" horiz-adv-x="642" 
d="M340 732c-81 0 -134 53 -142 143l104 15c1 -41 15 -63 38 -63s37 22 38 63l104 -15c-8 -90 -61 -143 -142 -143zM577 700v-145h-331v-129h271v-139h-271v-142h331v-145h-501v700h501z" />
    <glyph glyph-name="ebreve" unicode="&#x115;" horiz-adv-x="607" 
d="M306 592c-81 0 -134 53 -142 143l104 15c1 -41 15 -63 38 -63s37 22 38 63l104 -15c-8 -90 -61 -143 -142 -143zM306 560c186 0 292 -170 269 -346h-389c20 -51 64 -82 119 -82c42 0 79 20 103 53l122 -84c-51 -70 -126 -111 -224 -111c-160 0 -277 123 -277 285
c0 163 117 285 277 285zM305 416c-60 0 -106 -35 -122 -92h239c-13 50 -52 92 -117 92z" />
    <glyph glyph-name="Edotaccent" unicode="&#x116;" horiz-adv-x="642" 
d="M340 746c-38 0 -68 30 -68 68s30 68 68 68s68 -30 68 -68s-30 -68 -68 -68zM577 700v-145h-331v-129h271v-139h-271v-142h331v-145h-501v700h501z" />
    <glyph glyph-name="edotaccent" unicode="&#x117;" horiz-adv-x="607" 
d="M306 606c-38 0 -68 30 -68 68s30 68 68 68s68 -30 68 -68s-30 -68 -68 -68zM306 560c186 0 292 -170 269 -346h-389c20 -51 64 -82 119 -82c42 0 79 20 103 53l122 -84c-51 -70 -126 -111 -224 -111c-160 0 -277 123 -277 285c0 163 117 285 277 285zM305 416
c-60 0 -106 -35 -122 -92h239c-13 50 -52 92 -117 92z" />
    <glyph glyph-name="Eogonek" unicode="&#x118;" horiz-adv-x="642" 
d="M579 -108l64 -26c-21 -62 -69 -94 -134 -94c-72 0 -116 46 -116 109c0 48 28 90 64 119h-381v700h501v-145h-331v-129h271v-139h-271v-142h331v-145c-54 -23 -86 -69 -86 -100c0 -30 14 -44 40 -44s39 18 48 36z" />
    <glyph glyph-name="eogonek" unicode="&#x119;" horiz-adv-x="607" 
d="M306 560c186 0 292 -170 269 -346h-389c20 -51 64 -82 119 -82c42 0 79 20 103 53l122 -84c-45 -61 -108 -100 -189 -109c-45 -25 -71 -65 -71 -93c0 -30 14 -44 40 -44s39 18 48 36l64 -26c-21 -62 -69 -94 -134 -94c-72 0 -116 46 -116 109c0 48 28 90 64 118
c-123 31 -207 140 -207 277c0 163 117 285 277 285zM305 416c-60 0 -106 -35 -122 -92h239c-13 50 -52 92 -117 92z" />
    <glyph glyph-name="Ecaron" unicode="&#x11a;" horiz-adv-x="642" 
d="M489 863l-149 -129l-149 129l76 72l73 -73l73 73zM577 700v-145h-331v-129h271v-139h-271v-142h331v-145h-501v700h501z" />
    <glyph glyph-name="ecaron" unicode="&#x11b;" horiz-adv-x="607" 
d="M379 795l76 -72l-149 -129l-149 129l76 72l73 -73zM306 560c186 0 292 -170 269 -346h-389c20 -51 64 -82 119 -82c42 0 79 20 103 53l122 -84c-51 -70 -126 -111 -224 -111c-160 0 -277 123 -277 285c0 163 117 285 277 285zM305 416c-60 0 -106 -35 -122 -92h239
c-13 50 -52 92 -117 92z" />
    <glyph glyph-name="Gcircumflex" unicode="&#x11c;" horiz-adv-x="778" 
d="M472 745l-73 73l-73 -73l-76 72l149 129l149 -129zM413 419h325c31 -253 -117 -431 -339 -431c-210 0 -363 152 -363 362s153 361 363 361c101 0 208 -50 269 -126l-112 -99c-37 43 -101 72 -154 72c-111 0 -193 -84 -193 -208s82 -204 193 -204c91 0 162 56 177 140
h-166v133z" />
    <glyph glyph-name="gcircumflex" unicode="&#x11d;" horiz-adv-x="607" 
d="M350 594l-73 73l-73 -73l-76 72l149 129l149 -129zM601 557v-145c-32 0 -65 -3 -93 -11c5 -19 8 -40 8 -61c0 -127 -100 -219 -239 -219c-23 0 -46 3 -67 8c-9 -9 -13 -18 -13 -26c0 -16 14 -26 64 -26h101c134 0 204 -55 204 -167c0 -111 -85 -184 -259 -184
c-146 0 -246 38 -306 72l64 125c46 -22 128 -53 242 -53c71 0 99 12 99 35s-15 32 -71 32h-107c-126 0 -198 52 -198 132c0 59 32 95 69 120c-39 38 -61 91 -61 151c0 128 100 220 239 220c64 0 119 -19 160 -52c36 37 93 49 164 49zM277 258c49 0 84 34 84 82
s-35 82 -84 82s-84 -34 -84 -82s35 -82 84 -82z" />
    <glyph glyph-name="Gbreve" unicode="&#x11e;" horiz-adv-x="778" 
d="M399 743c-81 0 -134 53 -142 143l104 15c1 -41 15 -63 38 -63s37 22 38 63l104 -15c-8 -90 -61 -143 -142 -143zM413 419h325c31 -253 -117 -431 -339 -431c-210 0 -363 152 -363 362s153 361 363 361c101 0 208 -50 269 -126l-112 -99c-37 43 -101 72 -154 72
c-111 0 -193 -84 -193 -208s82 -204 193 -204c91 0 162 56 177 140h-166v133z" />
    <glyph glyph-name="gbreve" unicode="&#x11f;" horiz-adv-x="607" 
d="M277 592c-81 0 -134 53 -142 143l104 15c1 -41 15 -63 38 -63s37 22 38 63l104 -15c-8 -90 -61 -143 -142 -143zM601 557v-145c-32 0 -65 -3 -93 -11c5 -19 8 -40 8 -61c0 -127 -100 -219 -239 -219c-23 0 -46 3 -67 8c-9 -9 -13 -18 -13 -26c0 -16 14 -26 64 -26h101
c134 0 204 -55 204 -167c0 -111 -85 -184 -259 -184c-146 0 -246 38 -306 72l64 125c46 -22 128 -53 242 -53c71 0 99 12 99 35s-15 32 -71 32h-107c-126 0 -198 52 -198 132c0 59 32 95 69 120c-39 38 -61 91 -61 151c0 128 100 220 239 220c64 0 119 -19 160 -52
c36 37 93 49 164 49zM277 258c49 0 84 34 84 82s-35 82 -84 82s-84 -34 -84 -82s35 -82 84 -82z" />
    <glyph glyph-name="Gdotaccent" unicode="&#x120;" horiz-adv-x="778" 
d="M399 757c-38 0 -68 30 -68 68s30 68 68 68s68 -30 68 -68s-30 -68 -68 -68zM413 419h325c31 -253 -117 -431 -339 -431c-210 0 -363 152 -363 362s153 361 363 361c101 0 208 -50 269 -126l-112 -99c-37 43 -101 72 -154 72c-111 0 -193 -84 -193 -208s82 -204 193 -204
c91 0 162 56 177 140h-166v133z" />
    <glyph glyph-name="gdotaccent" unicode="&#x121;" horiz-adv-x="607" 
d="M277 606c-38 0 -68 30 -68 68s30 68 68 68s68 -30 68 -68s-30 -68 -68 -68zM601 557v-145c-32 0 -65 -3 -93 -11c5 -19 8 -40 8 -61c0 -127 -100 -219 -239 -219c-23 0 -46 3 -67 8c-9 -9 -13 -18 -13 -26c0 -16 14 -26 64 -26h101c134 0 204 -55 204 -167
c0 -111 -85 -184 -259 -184c-146 0 -246 38 -306 72l64 125c46 -22 128 -53 242 -53c71 0 99 12 99 35s-15 32 -71 32h-107c-126 0 -198 52 -198 132c0 59 32 95 69 120c-39 38 -61 91 -61 151c0 128 100 220 239 220c64 0 119 -19 160 -52c36 37 93 49 164 49zM277 258
c49 0 84 34 84 82s-35 82 -84 82s-84 -34 -84 -82s35 -82 84 -82z" />
    <glyph glyph-name="uni0122" unicode="&#x122;" horiz-adv-x="778" 
d="M413 419h325c31 -253 -117 -431 -339 -431c-210 0 -363 152 -363 362s153 361 363 361c101 0 208 -50 269 -126l-112 -99c-37 43 -101 72 -154 72c-111 0 -193 -84 -193 -208s82 -204 193 -204c91 0 162 56 177 140h-166v133zM421 -240h-79v186h120v-76z" />
    <glyph glyph-name="uni0123" unicode="&#x123;" horiz-adv-x="607" 
d="M282 769h116l-60 -159h-131zM601 557v-145c-32 0 -65 -3 -93 -11c5 -19 8 -40 8 -61c0 -127 -100 -219 -239 -219c-23 0 -46 3 -67 8c-9 -9 -13 -18 -13 -26c0 -16 14 -26 64 -26h101c134 0 204 -55 204 -167c0 -111 -85 -184 -259 -184c-146 0 -246 38 -306 72l64 125
c46 -22 128 -53 242 -53c71 0 99 12 99 35s-15 32 -71 32h-107c-126 0 -198 52 -198 132c0 59 32 95 69 120c-39 38 -61 91 -61 151c0 128 100 220 239 220c64 0 119 -19 160 -52c36 37 93 49 164 49zM277 258c49 0 84 34 84 82s-35 82 -84 82s-84 -34 -84 -82
s35 -82 84 -82z" />
    <glyph glyph-name="Hcircumflex" unicode="&#x124;" horiz-adv-x="770" 
d="M458 734l-73 73l-73 -73l-76 72l149 129l149 -129zM524 439v261h170v-700h-170v294h-278v-294h-170v700h170v-261h278z" />
    <glyph glyph-name="hcircumflex" unicode="&#x125;" horiz-adv-x="634" 
d="M214 784l-73 73l-73 -73l-76 72l149 129l149 -129zM386 555c128 0 197 -88 197 -246v-309h-160v309c0 68 -41 112 -101 112s-101 -44 -101 -112v-309h-160v750h160v-267c39 47 97 72 165 72z" />
    <glyph glyph-name="Hbar" unicode="&#x126;" horiz-adv-x="770" 
d="M694 616h43v-116h-43v-500h-170v294h-278v-294h-170v500h-45v116h45v84h170v-84h278v84h170v-84zM246 439h278v61h-278v-61z" />
    <glyph glyph-name="hbar" unicode="&#x127;" horiz-adv-x="634" 
d="M386 555c128 0 197 -88 197 -246v-309h-160v309c0 68 -41 112 -101 112s-101 -44 -101 -112v-309h-160v577h-54v114h54v59h160v-59h107v-114h-107v-94c39 47 97 72 165 72z" />
    <glyph glyph-name="Itilde" unicode="&#x128;" horiz-adv-x="322" 
d="M55 762l-52 58c29 37 67 68 113 68c61 0 64 -57 100 -57c24 0 40 15 55 33l52 -58c-25 -39 -68 -67 -110 -67c-63 0 -62 57 -101 57c-24 0 -43 -15 -57 -34zM76 0v700h170v-700h-170z" />
    <glyph glyph-name="itilde" unicode="&#x129;" horiz-adv-x="282" 
d="M35 612l-52 58c29 37 67 68 113 68c61 0 64 -57 100 -57c24 0 40 15 55 33l52 -58c-25 -39 -68 -67 -110 -67c-63 0 -62 57 -101 57c-24 0 -43 -15 -57 -34zM221 0h-160v550h160v-550z" />
    <glyph glyph-name="Imacron" unicode="&#x12a;" horiz-adv-x="322" 
d="M300 760h-278v97h278v-97zM76 0v700h170v-700h-170z" />
    <glyph glyph-name="imacron" unicode="&#x12b;" horiz-adv-x="282" 
d="M280 610h-278v97h278v-97zM221 0h-160v550h160v-550z" />
    <glyph glyph-name="Ibreve" unicode="&#x12c;" horiz-adv-x="322" 
d="M199 890l104 -15c-8 -90 -61 -143 -142 -143s-134 53 -142 143l104 15c1 -41 15 -63 38 -63s37 22 38 63zM246 0h-170v700h170v-700z" />
    <glyph glyph-name="ibreve" unicode="&#x12d;" horiz-adv-x="282" 
d="M179 740l104 -15c-8 -90 -61 -143 -142 -143s-134 53 -142 143l104 15c1 -41 15 -63 38 -63s37 22 38 63zM221 0h-160v550h160v-550z" />
    <glyph glyph-name="Iogonek" unicode="&#x12e;" horiz-adv-x="322" 
d="M248 -108l64 -26c-21 -62 -69 -94 -134 -94c-72 0 -116 46 -116 109c0 48 28 90 64 119h-50v700h170v-700c-54 -23 -86 -69 -86 -100c0 -30 14 -44 40 -44s39 18 48 36z" />
    <glyph glyph-name="iogonek" unicode="&#x12f;" horiz-adv-x="282" 
d="M141 596c-38 0 -68 30 -68 68s30 68 68 68s68 -30 68 -68s-30 -68 -68 -68zM223 -108l64 -26c-21 -62 -69 -94 -134 -94c-72 0 -116 46 -116 109c0 48 28 90 64 119h-40v550h160v-550c-54 -23 -86 -69 -86 -100c0 -30 14 -44 40 -44s39 18 48 36z" />
    <glyph glyph-name="Idotaccent" unicode="&#x130;" horiz-adv-x="322" 
d="M161 746c-38 0 -68 30 -68 68s30 68 68 68s68 -30 68 -68s-30 -68 -68 -68zM76 0v700h170v-700h-170z" />
    <glyph glyph-name="dotlessi" unicode="&#x131;" horiz-adv-x="282" 
d="M221 0h-160v550h160v-550z" />
    <glyph glyph-name="IJ" unicode="&#x132;" horiz-adv-x="854" 
d="M76 0v700h170v-700h-170zM310 146l152 60c11 -40 39 -66 80 -66c39 0 70 23 70 80v480h170v-480c0 -148 -87 -231 -232 -231c-116 0 -204 51 -240 157z" />
    <glyph glyph-name="ij" unicode="&#x133;" horiz-adv-x="550" 
d="M141 604c-54 0 -96 42 -96 96s42 96 96 96s96 -42 96 -96s-42 -96 -96 -96zM409 604c-54 0 -96 42 -96 96c0 53 42 95 96 95s96 -42 96 -95c0 -54 -42 -96 -96 -96zM221 0h-160v550h160v-550zM163 -208l58 117c14 -6 38 -15 60 -15c29 0 48 20 48 65v591h160v-617
c0 -129 -81 -187 -174 -187c-57 0 -111 22 -152 46z" />
    <glyph glyph-name="Jcircumflex" unicode="&#x134;" horiz-adv-x="532" 
d="M226 806l149 129l149 -129l-76 -72l-73 73l-73 -73zM-12 146l152 60c11 -40 39 -66 80 -66c39 0 70 23 70 80v480h170v-480c0 -148 -87 -231 -232 -231c-116 0 -204 51 -240 157z" />
    <glyph glyph-name="jcircumflex" unicode="&#x135;" horiz-adv-x="282" 
d="M-8 656l149 129l149 -129l-76 -72l-73 73l-73 -73zM-105 -208l58 117c14 -6 38 -15 60 -15c29 0 48 20 48 65v591h160v-617c0 -129 -81 -187 -174 -187c-57 0 -111 22 -152 46z" />
    <glyph glyph-name="uni0136" unicode="&#x136;" horiz-adv-x="697" 
d="M682 695l-288 -324l300 -366v-5h-206l-242 300v-300h-170v700h170v-266l228 266h208v-5zM385 -228h-79v186h120v-76z" />
    <glyph glyph-name="uni0137" unicode="&#x137;" horiz-adv-x="580" 
d="M582 546l-207 -245l211 -297v-4h-190l-175 254v-254h-160v750h160v-405l165 205h196v-4zM343 -228h-79v186h120v-76z" />
    <glyph glyph-name="Lacute" unicode="&#x139;" horiz-adv-x="569" 
d="M86 750l98 150h183l-145 -150h-136zM246 700v-555h290v-145h-460v700h170z" />
    <glyph glyph-name="lacute" unicode="&#x13a;" horiz-adv-x="282" 
d="M63 800l98 150h183l-145 -150h-136zM221 0h-160v750h160v-750z" />
    <glyph glyph-name="uni013B" unicode="&#x13b;" horiz-adv-x="569" 
d="M246 700v-555h290v-145h-460v700h170zM256 -228v186h120v-76l-41 -110h-79z" />
    <glyph glyph-name="uni013C" unicode="&#x13c;" horiz-adv-x="282" 
d="M221 0h-160v750h160v-750zM84 -228v186h120v-76l-41 -110h-79z" />
    <glyph glyph-name="Lcaron" unicode="&#x13d;" horiz-adv-x="569" 
d="M246 700v-555h290v-145h-460v700h170zM416 443v257h117v-105l-40 -152h-77z" />
    <glyph glyph-name="lcaron" unicode="&#x13e;" horiz-adv-x="407" 
d="M281 502v249h127v-102l-44 -147h-83zM221 0h-160v750h160v-750z" />
    <glyph glyph-name="Ldot" unicode="&#x13f;" horiz-adv-x="569" 
d="M246 700v-555h290v-145h-460v700h170zM397 307c-42 0 -76 33 -76 75s34 76 76 76s76 -34 76 -76s-34 -75 -76 -75z" />
    <glyph glyph-name="ldot" unicode="&#x140;" horiz-adv-x="401" 
d="M221 0h-160v750h160v-750zM336 259c-42 0 -76 33 -76 75s34 76 76 76s76 -34 76 -76s-34 -75 -76 -75z" />
    <glyph glyph-name="Lslash" unicode="&#x141;" horiz-adv-x="569" 
d="M246 304v-159h290v-145h-460v179l-67 -49v160l67 49v361h170v-236l145 106v-160z" />
    <glyph glyph-name="lslash" unicode="&#x142;" horiz-adv-x="320" 
d="M241 495l69 60v-149l-69 -60v-346h-160v206l-69 -60v149l69 60v395h160v-255z" />
    <glyph glyph-name="Nacute" unicode="&#x143;" horiz-adv-x="785" 
d="M315 750l98 150h183l-145 -150h-136zM709 700v-700h-123l-343 400v-400h-167v700h123l343 -400v400h167z" />
    <glyph glyph-name="nacute" unicode="&#x144;" horiz-adv-x="634" 
d="M353 750h183l-145 -150h-136zM383 560c128 0 200 -81 200 -236v-324h-160v314c0 66 -41 112 -101 112s-101 -46 -101 -112v-314h-160v550h160v-60c39 45 95 70 162 70z" />
    <glyph glyph-name="uni0145" unicode="&#x145;" horiz-adv-x="785" 
d="M709 700v-700h-123l-343 400v-400h-167v700h123l343 -400v400h167zM336 -228v186h120v-76l-41 -110h-79z" />
    <glyph glyph-name="uni0146" unicode="&#x146;" horiz-adv-x="634" 
d="M383 560c128 0 200 -81 200 -236v-324h-160v314c0 66 -41 112 -101 112s-101 -46 -101 -112v-314h-160v550h160v-60c39 45 95 70 162 70zM346 -228h-79v186h120v-76z" />
    <glyph glyph-name="Ncaron" unicode="&#x147;" horiz-adv-x="785" 
d="M542 863l-149 -129l-149 129l76 72l73 -73l73 73zM709 700v-700h-123l-343 400v-400h-167v700h123l343 -400v400h167z" />
    <glyph glyph-name="ncaron" unicode="&#x148;" horiz-adv-x="634" 
d="M406 785l76 -72l-149 -129l-149 129l76 72l73 -73zM383 560c128 0 200 -81 200 -236v-324h-160v314c0 66 -41 112 -101 112s-101 -46 -101 -112v-314h-160v550h160v-60c39 45 95 70 162 70z" />
    <glyph glyph-name="napostrophe" unicode="&#x149;" horiz-adv-x="634" 
d="M108 825h134l-68 -236h-104zM383 560c128 0 200 -81 200 -236v-324h-160v314c0 66 -41 112 -101 112s-101 -46 -101 -112v-314h-160v550h160v-60c39 45 95 70 162 70z" />
    <glyph glyph-name="Eng" unicode="&#x14a;" horiz-adv-x="785" 
d="M542 300v400h167v-774c0 -196 -221 -227 -349 -123l63 116c70 -46 126 -38 126 39v85l-306 357v-400h-167v700h123z" />
    <glyph glyph-name="eng" unicode="&#x14b;" horiz-adv-x="634" 
d="M383 560c128 0 200 -81 200 -236v-398c0 -196 -221 -227 -349 -123l63 116c70 -46 126 -38 126 39v356c0 66 -41 112 -101 112s-101 -46 -101 -112v-314h-160v550h160v-60c39 45 95 70 162 70z" />
    <glyph glyph-name="Omacron" unicode="&#x14c;" horiz-adv-x="796" 
d="M537 772h-278v97h278v-97zM398 -12c-205 0 -362 155 -362 362s157 362 362 362s362 -155 362 -362s-157 -362 -362 -362zM398 148c109 0 192 86 192 202s-83 202 -192 202s-192 -86 -192 -202s83 -202 192 -202z" />
    <glyph glyph-name="omacron" unicode="&#x14d;" horiz-adv-x="622" 
d="M450 623h-278v97h278v-97zM311 -13c-164 0 -282 119 -282 288s118 288 282 288s282 -119 282 -288s-118 -288 -282 -288zM311 131c72 0 127 61 127 144s-55 144 -127 144s-127 -61 -127 -144s55 -144 127 -144z" />
    <glyph glyph-name="Obreve" unicode="&#x14e;" horiz-adv-x="796" 
d="M398 744c-81 0 -134 53 -142 143l104 15c1 -41 15 -63 38 -63s37 22 38 63l104 -15c-8 -90 -61 -143 -142 -143zM398 712c205 0 362 -155 362 -362s-157 -362 -362 -362s-362 155 -362 362s157 362 362 362zM398 148c109 0 192 86 192 202s-83 202 -192 202
s-192 -86 -192 -202s83 -202 192 -202z" />
    <glyph glyph-name="obreve" unicode="&#x14f;" horiz-adv-x="622" 
d="M311 595c-81 0 -134 53 -142 143l104 15c1 -41 15 -63 38 -63s37 22 38 63l104 -15c-8 -90 -61 -143 -142 -143zM311 563c164 0 282 -119 282 -288s-118 -288 -282 -288s-282 119 -282 288s118 288 282 288zM311 131c72 0 127 61 127 144s-55 144 -127 144
s-127 -61 -127 -144s55 -144 127 -144z" />
    <glyph glyph-name="Ohungarumlaut" unicode="&#x150;" horiz-adv-x="796" 
d="M348 932h100l-83 -170h-83zM479 932h100l-83 -170h-83zM398 -12c-205 0 -362 155 -362 362s157 362 362 362s362 -155 362 -362s-157 -362 -362 -362zM398 148c109 0 192 86 192 202s-83 202 -192 202s-192 -86 -192 -202s83 -202 192 -202z" />
    <glyph glyph-name="ohungarumlaut" unicode="&#x151;" horiz-adv-x="622" 
d="M261 783h100l-83 -170h-83zM392 783h100l-83 -170h-83zM311 -13c-164 0 -282 119 -282 288s118 288 282 288s282 -119 282 -288s-118 -288 -282 -288zM311 131c72 0 127 61 127 144s-55 144 -127 144s-127 -61 -127 -144s55 -144 127 -144z" />
    <glyph glyph-name="OE" unicode="&#x152;" horiz-adv-x="1042" 
d="M977 700v-145h-331v-129h271v-139h-271v-142h331v-145h-575c-234 0 -366 127 -366 350s132 350 366 350h575zM394 145h82v410h-82c-120 0 -188 -74 -188 -205s68 -205 188 -205z" />
    <glyph glyph-name="oe" unicode="&#x153;" horiz-adv-x="915" 
d="M614 560c186 0 292 -170 269 -346h-389c20 -51 64 -82 119 -82c42 0 79 20 103 53l122 -84c-51 -70 -126 -111 -224 -111c-58 0 -110 16 -154 44c-43 -28 -95 -45 -150 -45c-166 0 -281 117 -281 286s115 286 281 286c55 0 107 -17 150 -45c43 28 96 44 154 44zM182 275
c0 -84 53 -143 128 -143c19 0 38 5 55 14c-18 39 -28 82 -28 129s10 91 27 129c-16 9 -35 14 -54 14c-75 0 -128 -59 -128 -143zM491 324h239c-13 50 -52 92 -117 92c-60 0 -106 -35 -122 -92z" />
    <glyph glyph-name="Racute" unicode="&#x154;" horiz-adv-x="685" 
d="M358 900h183l-145 -150h-136zM511 264l145 -256v-8h-180l-130 245h-100v-245h-170v700h324c152 0 241 -87 241 -227c0 -102 -46 -176 -130 -209zM378 555h-132v-165h132c59 0 93 33 93 83c0 49 -34 82 -93 82z" />
    <glyph glyph-name="racute" unicode="&#x155;" horiz-adv-x="432" 
d="M275 750h183l-145 -150h-136zM210 457l4 -1c30 72 106 107 191 99v-151c-89 10 -184 -31 -184 -171v-233h-160v550h135z" />
    <glyph glyph-name="uni0156" unicode="&#x156;" horiz-adv-x="685" 
d="M511 264l145 -256v-8h-180l-130 245h-100v-245h-170v700h324c152 0 241 -87 241 -227c0 -102 -46 -176 -130 -209zM378 555h-132v-165h132c59 0 93 33 93 83c0 49 -34 82 -93 82zM377 -228h-79v186h120v-76z" />
    <glyph glyph-name="uni0157" unicode="&#x157;" horiz-adv-x="432" 
d="M210 457l4 -1c30 72 106 107 191 99v-151c-89 10 -184 -31 -184 -171v-233h-160v550h135zM163 -228h-79v186h120v-76z" />
    <glyph glyph-name="Rcaron" unicode="&#x158;" horiz-adv-x="685" 
d="M411 935l76 -72l-149 -129l-149 129l76 72l73 -73zM511 264l145 -256v-8h-180l-130 245h-100v-245h-170v700h324c152 0 241 -87 241 -227c0 -102 -46 -176 -130 -209zM378 555h-132v-165h132c59 0 93 33 93 83c0 49 -34 82 -93 82z" />
    <glyph glyph-name="rcaron" unicode="&#x159;" horiz-adv-x="432" 
d="M328 785l76 -72l-149 -129l-149 129l76 72l73 -73zM210 457l4 -1c30 72 106 107 191 99v-151c-89 10 -184 -31 -184 -171v-233h-160v550h135z" />
    <glyph glyph-name="Sacute" unicode="&#x15a;" horiz-adv-x="628" 
d="M231 761l98 150h183l-145 -150h-136zM571 552l-143 -69c-27 51 -73 83 -133 83c-52 0 -84 -17 -84 -53c0 -35 24 -57 148 -94c131 -39 223 -87 223 -219c0 -150 -142 -212 -266 -212c-134 0 -242 63 -286 183l137 77c41 -79 94 -113 159 -113c57 0 89 20 89 58
c0 40 -32 66 -137 100c-106 34 -234 81 -234 221c0 139 126 198 257 198c141 0 228 -70 270 -160z" />
    <glyph glyph-name="sacute" unicode="&#x15b;" horiz-adv-x="508" 
d="M174 613l98 150h183l-145 -150h-136zM475 435l-131 -57c-17 30 -53 57 -97 57c-41 0 -63 -13 -63 -35c0 -26 18 -39 107 -62c114 -29 190 -70 190 -180c0 -120 -115 -173 -224 -173c-122 0 -209 45 -245 140l131 66c30 -57 75 -75 116 -75s64 14 64 45
c0 26 -24 36 -87 53c-85 23 -209 64 -210 177c1 115 109 173 226 173c113 0 191 -55 223 -129z" />
    <glyph glyph-name="Scircumflex" unicode="&#x15c;" horiz-adv-x="628" 
d="M160 817l149 129l149 -129l-76 -72l-73 73l-73 -73zM571 552l-143 -69c-27 51 -73 83 -133 83c-52 0 -84 -17 -84 -53c0 -35 24 -57 148 -94c131 -39 223 -87 223 -219c0 -150 -142 -212 -266 -212c-134 0 -242 63 -286 183l137 77c41 -79 94 -113 159 -113
c57 0 89 20 89 58c0 40 -32 66 -137 100c-106 34 -234 81 -234 221c0 139 126 198 257 198c141 0 228 -70 270 -160z" />
    <glyph glyph-name="scircumflex" unicode="&#x15d;" horiz-adv-x="508" 
d="M103 669l149 129l149 -129l-76 -72l-73 73l-73 -73zM475 435l-131 -57c-17 30 -53 57 -97 57c-41 0 -63 -13 -63 -35c0 -26 18 -39 107 -62c114 -29 190 -70 190 -180c0 -120 -115 -173 -224 -173c-122 0 -209 45 -245 140l131 66c30 -57 75 -75 116 -75s64 14 64 45
c0 26 -24 36 -87 53c-85 23 -209 64 -210 177c1 115 109 173 226 173c113 0 191 -55 223 -129z" />
    <glyph glyph-name="Scedilla" unicode="&#x15e;" horiz-adv-x="628" 
d="M582 200c0 -132 -111 -196 -222 -209l-16 -54c42 -9 55 -41 55 -64c0 -48 -40 -86 -115 -86c-40 0 -85 14 -116 33l29 60c24 -12 56 -24 77 -24c22 0 30 6 30 21c0 17 -15 27 -50 34l17 79c-113 13 -202 75 -241 181l137 77c41 -79 94 -113 159 -113c57 0 89 20 89 58
c0 40 -32 66 -137 100c-106 34 -234 81 -234 221c0 139 126 198 257 198c141 0 228 -70 270 -160l-143 -69c-27 51 -73 83 -133 83c-52 0 -84 -17 -84 -53c0 -35 24 -57 148 -94c131 -39 223 -87 223 -219z" />
    <glyph glyph-name="scedilla" unicode="&#x15f;" horiz-adv-x="508" 
d="M481 158c0 -104 -86 -158 -180 -170l-16 -52c42 -9 55 -41 55 -64c0 -48 -40 -86 -115 -86c-40 0 -85 14 -116 33l29 60c24 -12 56 -24 77 -24c22 0 30 6 30 21c0 17 -15 27 -50 34l16 77c-98 10 -168 55 -199 138l131 66c30 -57 75 -75 116 -75s64 14 64 45
c0 26 -24 36 -87 53c-85 23 -209 64 -210 177c1 115 109 173 226 173c113 0 191 -55 223 -129l-131 -57c-17 30 -53 57 -97 57c-41 0 -63 -13 -63 -35c0 -26 18 -39 107 -62c114 -29 190 -70 190 -180z" />
    <glyph glyph-name="Scaron" unicode="&#x160;" horiz-adv-x="628" 
d="M458 874l-149 -129l-149 129l76 72l73 -73l73 73zM571 552l-143 -69c-27 51 -73 83 -133 83c-52 0 -84 -17 -84 -53c0 -35 24 -57 148 -94c131 -39 223 -87 223 -219c0 -150 -142 -212 -266 -212c-134 0 -242 63 -286 183l137 77c41 -79 94 -113 159 -113
c57 0 89 20 89 58c0 40 -32 66 -137 100c-106 34 -234 81 -234 221c0 139 126 198 257 198c141 0 228 -70 270 -160z" />
    <glyph glyph-name="scaron" unicode="&#x161;" horiz-adv-x="508" 
d="M401 726l-149 -129l-149 129l76 72l73 -73l73 73zM475 435l-131 -57c-17 30 -53 57 -97 57c-41 0 -63 -13 -63 -35c0 -26 18 -39 107 -62c114 -29 190 -70 190 -180c0 -120 -115 -173 -224 -173c-122 0 -209 45 -245 140l131 66c30 -57 75 -75 116 -75s64 14 64 45
c0 26 -24 36 -87 53c-85 23 -209 64 -210 177c1 115 109 173 226 173c113 0 191 -55 223 -129z" />
    <glyph glyph-name="uni0162" unicode="&#x162;" horiz-adv-x="618" 
d="M30 700h558v-145h-194v-555h-42l-15 -51c42 -9 55 -41 55 -64c0 -48 -40 -86 -115 -86c-40 0 -85 14 -116 33l29 60c24 -12 56 -24 77 -24c22 0 30 6 30 21c0 17 -15 27 -50 34l16 77h-39v555h-194v145z" />
    <glyph glyph-name="uni0163" unicode="&#x163;" horiz-adv-x="385" 
d="M363 140v-140h-63l-15 -51c42 -9 55 -41 55 -64c0 -48 -40 -86 -115 -86c-40 0 -85 14 -116 33l29 60c24 -12 56 -24 77 -24c22 0 30 6 30 21c0 17 -15 27 -50 34l17 80c-90 14 -129 73 -129 166v256h-56v125h56v109l160 30v-139h105v-125h-105v-201c0 -65 16 -84 70 -84
h50z" />
    <glyph glyph-name="Tcaron" unicode="&#x164;" horiz-adv-x="618" 
d="M382 935l76 -72l-149 -129l-149 129l76 72l73 -73zM30 700h558v-145h-194v-555h-170v555h-194v145z" />
    <glyph glyph-name="tcaron" unicode="&#x165;" horiz-adv-x="385" 
d="M299 584v166h100v-68l-34 -98h-66zM243 425v-201c0 -65 16 -84 70 -84h50v-140h-109c-120 0 -171 63 -171 169v256h-56v125h56v109l160 30v-139h105v-125h-105z" />
    <glyph glyph-name="Tbar" unicode="&#x166;" horiz-adv-x="618" 
d="M588 700v-145h-194v-142h121v-126h-121v-287h-170v287h-121v126h121v142h-194v145h558z" />
    <glyph glyph-name="tbar" unicode="&#x167;" horiz-adv-x="385" 
d="M313 140h50v-140h-109c-120 0 -171 63 -171 169v71h-56v116h56v69h-56v125h56v109l160 30v-139h105v-125h-105v-69h107v-116h-107v-16c0 -65 16 -84 70 -84z" />
    <glyph glyph-name="Utilde" unicode="&#x168;" horiz-adv-x="760" 
d="M274 762l-52 58c29 37 67 68 113 68c61 0 64 -57 100 -57c24 0 40 15 55 33l52 -58c-25 -39 -68 -67 -110 -67c-63 0 -62 57 -101 57c-24 0 -43 -15 -57 -34zM519 292v408h170v-419c0 -180 -116 -293 -309 -293s-306 113 -307 293l-2 419h170v-408
c0 -91 51 -146 139 -146s139 55 139 146z" />
    <glyph glyph-name="utilde" unicode="&#x169;" horiz-adv-x="620" 
d="M204 612l-52 58c29 37 67 68 113 68c61 0 64 -57 100 -57c24 0 40 15 55 33l52 -58c-25 -39 -68 -67 -110 -67c-63 0 -62 57 -101 57c-24 0 -43 -15 -57 -34zM406 225v325h160l-2 -331c-1 -136 -102 -230 -254 -230s-256 94 -256 230v331h160v-325c0 -56 39 -94 96 -94
s96 38 96 94z" />
    <glyph glyph-name="Umacron" unicode="&#x16a;" horiz-adv-x="760" 
d="M519 760h-278v97h278v-97zM519 292v408h170v-419c0 -180 -116 -293 -309 -293s-306 113 -307 293l-2 419h170v-408c0 -91 51 -146 139 -146s139 55 139 146z" />
    <glyph glyph-name="umacron" unicode="&#x16b;" horiz-adv-x="620" 
d="M449 610h-278v97h278v-97zM406 225v325h160l-2 -331c-1 -136 -102 -230 -254 -230s-256 94 -256 230v331h160v-325c0 -56 39 -94 96 -94s96 38 96 94z" />
    <glyph glyph-name="Ubreve" unicode="&#x16c;" horiz-adv-x="760" 
d="M380 732c-81 0 -134 53 -142 143l104 15c1 -41 15 -63 38 -63s37 22 38 63l104 -15c-8 -90 -61 -143 -142 -143zM519 292v408h170v-419c0 -180 -116 -293 -309 -293s-306 113 -307 293l-2 419h170v-408c0 -91 51 -146 139 -146s139 55 139 146z" />
    <glyph glyph-name="ubreve" unicode="&#x16d;" horiz-adv-x="620" 
d="M310 582c-81 0 -134 53 -142 143l104 15c1 -41 15 -63 38 -63s37 22 38 63l104 -15c-8 -90 -61 -143 -142 -143zM406 225v325h160l-2 -331c-1 -136 -102 -230 -254 -230s-256 94 -256 230v331h160v-325c0 -56 39 -94 96 -94s96 38 96 94z" />
    <glyph glyph-name="Uring" unicode="&#x16e;" horiz-adv-x="760" 
d="M380 727c-69 0 -121 51 -121 118c0 68 52 119 121 119s121 -51 121 -119c0 -67 -52 -118 -121 -118zM380 792c28 0 50 23 50 53s-22 53 -50 53s-50 -23 -50 -53s22 -53 50 -53zM519 292v408h170v-419c0 -180 -116 -293 -309 -293s-306 113 -307 293l-2 419h170v-408
c0 -91 51 -146 139 -146s139 55 139 146z" />
    <glyph glyph-name="uring" unicode="&#x16f;" horiz-adv-x="620" 
d="M310 577c-69 0 -121 51 -121 118c0 68 52 119 121 119s121 -51 121 -119c0 -67 -52 -118 -121 -118zM310 642c28 0 50 23 50 53s-22 53 -50 53s-50 -23 -50 -53s22 -53 50 -53zM406 225v325h160l-2 -331c-1 -136 -102 -230 -254 -230s-256 94 -256 230v331h160v-325
c0 -56 39 -94 96 -94s96 38 96 94z" />
    <glyph glyph-name="Uhungarumlaut" unicode="&#x170;" horiz-adv-x="760" 
d="M330 920h100l-83 -170h-83zM461 920h100l-83 -170h-83zM519 292v408h170v-419c0 -180 -116 -293 -309 -293s-306 113 -307 293l-2 419h170v-408c0 -91 51 -146 139 -146s139 55 139 146z" />
    <glyph glyph-name="uhungarumlaut" unicode="&#x171;" horiz-adv-x="620" 
d="M260 770h100l-83 -170h-83zM391 770h100l-83 -170h-83zM406 225v325h160l-2 -331c-1 -136 -102 -230 -254 -230s-256 94 -256 230v331h160v-325c0 -56 39 -94 96 -94s96 38 96 94z" />
    <glyph glyph-name="Uogonek" unicode="&#x172;" horiz-adv-x="760" 
d="M519 292v408h170v-419c0 -180 -116 -293 -309 -293c-54 -23 -86 -69 -86 -100c0 -30 14 -44 40 -44s39 18 48 36l64 -26c-21 -62 -69 -94 -134 -94c-72 0 -116 46 -116 109c0 56 37 103 81 131c-129 34 -203 136 -204 281l-2 419h170v-408c0 -91 51 -146 139 -146
s139 55 139 146z" />
    <glyph glyph-name="uogonek" unicode="&#x173;" horiz-adv-x="620" 
d="M406 225v325h160l-2 -331c-1 -125 -87 -215 -219 -228c-45 -25 -71 -65 -71 -93c0 -30 14 -44 40 -44s39 18 48 36l64 -26c-21 -62 -69 -94 -134 -94c-72 0 -116 46 -116 109c0 48 27 89 62 118c-112 24 -184 109 -184 222v331h160v-325c0 -56 39 -94 96 -94s96 38 96 94
z" />
    <glyph glyph-name="Wcircumflex" unicode="&#x174;" horiz-adv-x="1022" 
d="M362 806l149 129l149 -129l-76 -72l-73 73l-73 -73zM831 700h183v-10l-241 -690h-119l-143 419l-143 -419h-119l-241 690v10h183l126 -388l125 388h138l125 -388z" />
    <glyph glyph-name="wcircumflex" unicode="&#x175;" horiz-adv-x="826" 
d="M264 656l149 129l149 -129l-76 -72l-73 73l-73 -73zM558 263l92 287h167v-5l-197 -545h-95l-112 274l-113 -274h-94l-197 545v5h167l92 -287l109 287h72z" />
    <glyph glyph-name="Ycircumflex" unicode="&#x176;" horiz-adv-x="664" 
d="M183 806l149 129l149 -129l-76 -72l-73 73l-73 -73zM331 449l140 251h191v-6l-246 -410v-284h-170v284l-244 410v6h191z" />
    <glyph glyph-name="ycircumflex" unicode="&#x177;" horiz-adv-x="544" 
d="M346 584l-73 73l-73 -73l-76 72l149 129l149 -129zM275 239l95 311h166v-6l-200 -607c-60 -181 -152 -207 -297 -161l36 129c61 -17 97 -6 114 51l13 44l-196 544v6h171z" />
    <glyph glyph-name="Ydieresis" unicode="&#x178;" horiz-adv-x="664" 
d="M243 746c-38 0 -68 30 -68 68s30 68 68 68s68 -30 68 -68s-30 -68 -68 -68zM421 746c-38 0 -68 30 -68 68s30 68 68 68s68 -30 68 -68s-30 -68 -68 -68zM331 449l140 251h191v-6l-246 -410v-284h-170v284l-244 410v6h191z" />
    <glyph glyph-name="Zacute" unicode="&#x179;" horiz-adv-x="624" 
d="M233 750l98 150h183l-145 -150h-136zM45 700h539v-10l-301 -545h301v-145h-561v10l301 545h-279v145z" />
    <glyph glyph-name="zacute" unicode="&#x17a;" horiz-adv-x="498" 
d="M184 600l98 150h183l-145 -150h-136zM33 550h440v-10l-220 -405h223v-135h-454v10l220 405h-209v135z" />
    <glyph glyph-name="Zdotaccent" unicode="&#x17b;" horiz-adv-x="624" 
d="M311 746c-38 0 -68 30 -68 68s30 68 68 68s68 -30 68 -68s-30 -68 -68 -68zM45 700h539v-10l-301 -545h301v-145h-561v10l301 545h-279v145z" />
    <glyph glyph-name="zdotaccent" unicode="&#x17c;" horiz-adv-x="498" 
d="M262 596c-38 0 -68 30 -68 68s30 68 68 68s68 -30 68 -68s-30 -68 -68 -68zM33 550h440v-10l-220 -405h223v-135h-454v10l220 405h-209v135z" />
    <glyph glyph-name="Zcaron" unicode="&#x17d;" horiz-adv-x="624" 
d="M460 863l-149 -129l-149 129l76 72l73 -73l73 73zM45 700h539v-10l-301 -545h301v-145h-561v10l301 545h-279v145z" />
    <glyph glyph-name="zcaron" unicode="&#x17e;" horiz-adv-x="498" 
d="M411 713l-149 -129l-149 129l76 72l73 -73l73 73zM33 550h440v-10l-220 -405h223v-135h-454v10l220 405h-209v135z" />
    <glyph glyph-name="uni018F" unicode="&#x18f;" horiz-adv-x="778" 
d="M379 711c210 0 363 -151 363 -361s-153 -362 -363 -362c-222 0 -370 178 -339 431h520c-25 85 -95 139 -184 139c-53 0 -117 -29 -154 -72l-112 99c61 76 168 126 269 126zM376 146c93 0 165 56 186 146h-364c13 -88 84 -146 178 -146z" />
    <glyph glyph-name="florin" unicode="&#x192;" horiz-adv-x="418" 
d="M433 741l-35 -128c-45 20 -86 18 -90 -42l-6 -98h87v-126h-96l-24 -378c-11 -169 -105 -242 -284 -158l35 128c45 -20 87 -18 91 42l23 366h-77v126h85l7 110c11 172 97 235 284 158z" />
    <glyph glyph-name="uni01CD" unicode="&#x1cd;" horiz-adv-x="698" 
d="M422 935l76 -72l-149 -129l-149 129l76 72l73 -73zM287 700h124l294 -692v-8h-175l-42 109h-278l-42 -109h-175v8zM349 469l-87 -225h174z" />
    <glyph glyph-name="uni01CE" unicode="&#x1ce;" horiz-adv-x="589" 
d="M375 796l76 -72l-149 -129l-149 129l76 72l73 -73zM281 561c156 0 257 -66 257 -244v-317h-163v25c-34 -22 -78 -35 -127 -35c-130 0 -223 80 -223 190s93 190 223 190c49 0 92 -13 126 -35c-6 70 -52 96 -121 96c-56 0 -115 -21 -155 -44l-52 110c47 29 138 64 235 64z
M283 105c59 0 98 32 98 77s-39 77 -98 77c-57 0 -98 -32 -98 -77s41 -77 98 -77z" />
    <glyph glyph-name="uni01CF" unicode="&#x1cf;" horiz-adv-x="322" 
d="M310 863l-149 -129l-149 129l76 72l73 -73l73 73zM76 0v700h170v-700h-170z" />
    <glyph glyph-name="uni01D0" unicode="&#x1d0;" horiz-adv-x="282" 
d="M290 713l-149 -129l-149 129l76 72l73 -73l73 73zM221 0h-160v550h160v-550z" />
    <glyph glyph-name="uni01D1" unicode="&#x1d1;" horiz-adv-x="796" 
d="M547 875l-149 -129l-149 129l76 72l73 -73l73 73zM398 -12c-205 0 -362 155 -362 362s157 362 362 362s362 -155 362 -362s-157 -362 -362 -362zM398 148c109 0 192 86 192 202s-83 202 -192 202s-192 -86 -192 -202s83 -202 192 -202z" />
    <glyph glyph-name="uni01D2" unicode="&#x1d2;" horiz-adv-x="622" 
d="M460 726l-149 -129l-149 129l76 72l73 -73l73 73zM311 -13c-164 0 -282 119 -282 288s118 288 282 288s282 -119 282 -288s-118 -288 -282 -288zM311 131c72 0 127 61 127 144s-55 144 -127 144s-127 -61 -127 -144s55 -144 127 -144z" />
    <glyph glyph-name="uni01D3" unicode="&#x1d3;" horiz-adv-x="760" 
d="M529 863l-149 -129l-149 129l76 72l73 -73l73 73zM519 292v408h170v-419c0 -180 -116 -293 -309 -293s-306 113 -307 293l-2 419h170v-408c0 -91 51 -146 139 -146s139 55 139 146z" />
    <glyph glyph-name="uni01D4" unicode="&#x1d4;" horiz-adv-x="620" 
d="M459 713l-149 -129l-149 129l76 72l73 -73l73 73zM406 225v325h160l-2 -331c-1 -136 -102 -230 -254 -230s-256 94 -256 230v331h160v-325c0 -56 39 -94 96 -94s96 38 96 94z" />
    <glyph glyph-name="uni01D5" unicode="&#x1d5;" horiz-adv-x="760" 
d="M519 942h-278v97h278v-97zM291 746c-38 0 -68 30 -68 68s30 68 68 68s68 -30 68 -68s-30 -68 -68 -68zM469 746c-38 0 -68 30 -68 68s30 68 68 68s68 -30 68 -68s-30 -68 -68 -68zM519 292v408h170v-419c0 -180 -116 -293 -309 -293s-306 113 -307 293l-2 419h170v-408
c0 -91 51 -146 139 -146s139 55 139 146z" />
    <glyph glyph-name="uni01D6" unicode="&#x1d6;" horiz-adv-x="620" 
d="M449 792h-278v97h278v-97zM221 596c-38 0 -68 30 -68 68s30 68 68 68s68 -30 68 -68s-30 -68 -68 -68zM399 596c-38 0 -68 30 -68 68s30 68 68 68s68 -30 68 -68s-30 -68 -68 -68zM406 225v325h160l-2 -331c-1 -136 -102 -230 -254 -230s-256 94 -256 230v331h160v-325
c0 -56 39 -94 96 -94s96 38 96 94z" />
    <glyph glyph-name="uni01D7" unicode="&#x1d7;" horiz-adv-x="760" 
d="M302 932l98 150h183l-145 -150h-136zM291 746c-38 0 -68 30 -68 68s30 68 68 68s68 -30 68 -68s-30 -68 -68 -68zM469 746c-38 0 -68 30 -68 68s30 68 68 68s68 -30 68 -68s-30 -68 -68 -68zM519 292v408h170v-419c0 -180 -116 -293 -309 -293s-306 113 -307 293l-2 419
h170v-408c0 -91 51 -146 139 -146s139 55 139 146z" />
    <glyph glyph-name="uni01D8" unicode="&#x1d8;" horiz-adv-x="620" 
d="M232 782l98 150h183l-145 -150h-136zM221 596c-38 0 -68 30 -68 68s30 68 68 68s68 -30 68 -68s-30 -68 -68 -68zM399 596c-38 0 -68 30 -68 68s30 68 68 68s68 -30 68 -68s-30 -68 -68 -68zM406 225v325h160l-2 -331c-1 -136 -102 -230 -254 -230s-256 94 -256 230v331
h160v-325c0 -56 39 -94 96 -94s96 38 96 94z" />
    <glyph glyph-name="uni01D9" unicode="&#x1d9;" horiz-adv-x="760" 
d="M529 1045l-149 -129l-149 129l76 72l73 -73l73 73zM291 746c-38 0 -68 30 -68 68s30 68 68 68s68 -30 68 -68s-30 -68 -68 -68zM469 746c-38 0 -68 30 -68 68s30 68 68 68s68 -30 68 -68s-30 -68 -68 -68zM519 292v408h170v-419c0 -180 -116 -293 -309 -293
s-306 113 -307 293l-2 419h170v-408c0 -91 51 -146 139 -146s139 55 139 146z" />
    <glyph glyph-name="uni01DA" unicode="&#x1da;" horiz-adv-x="620" 
d="M459 895l-149 -129l-149 129l76 72l73 -73l73 73zM221 596c-38 0 -68 30 -68 68s30 68 68 68s68 -30 68 -68s-30 -68 -68 -68zM399 596c-38 0 -68 30 -68 68s30 68 68 68s68 -30 68 -68s-30 -68 -68 -68zM406 225v325h160l-2 -331c-1 -136 -102 -230 -254 -230
s-256 94 -256 230v331h160v-325c0 -56 39 -94 96 -94s96 38 96 94z" />
    <glyph glyph-name="uni01DB" unicode="&#x1db;" horiz-adv-x="760" 
d="M183 1082h183l98 -150h-136zM291 746c-38 0 -68 30 -68 68s30 68 68 68s68 -30 68 -68s-30 -68 -68 -68zM469 746c-38 0 -68 30 -68 68s30 68 68 68s68 -30 68 -68s-30 -68 -68 -68zM519 292v408h170v-419c0 -180 -116 -293 -309 -293s-306 113 -307 293l-2 419h170v-408
c0 -91 51 -146 139 -146s139 55 139 146z" />
    <glyph glyph-name="uni01DC" unicode="&#x1dc;" horiz-adv-x="620" 
d="M113 932h183l98 -150h-136zM221 596c-38 0 -68 30 -68 68s30 68 68 68s68 -30 68 -68s-30 -68 -68 -68zM399 596c-38 0 -68 30 -68 68s30 68 68 68s68 -30 68 -68s-30 -68 -68 -68zM406 225v325h160l-2 -331c-1 -136 -102 -230 -254 -230s-256 94 -256 230v331h160v-325
c0 -56 39 -94 96 -94s96 38 96 94z" />
    <glyph glyph-name="Gcaron" unicode="&#x1e6;" horiz-adv-x="778" 
d="M472 946l76 -72l-149 -129l-149 129l76 72l73 -73zM413 419h325c31 -253 -117 -431 -339 -431c-210 0 -363 152 -363 362s153 361 363 361c101 0 208 -50 269 -126l-112 -99c-37 43 -101 72 -154 72c-111 0 -193 -84 -193 -208s82 -204 193 -204c91 0 162 56 177 140
h-166v133z" />
    <glyph glyph-name="gcaron" unicode="&#x1e7;" horiz-adv-x="607" 
d="M350 795l76 -72l-149 -129l-149 129l76 72l73 -73zM601 557v-145c-32 0 -65 -3 -93 -11c5 -19 8 -40 8 -61c0 -127 -100 -219 -239 -219c-23 0 -46 3 -67 8c-9 -9 -13 -18 -13 -26c0 -16 14 -26 64 -26h101c134 0 204 -55 204 -167c0 -111 -85 -184 -259 -184
c-146 0 -246 38 -306 72l64 125c46 -22 128 -53 242 -53c71 0 99 12 99 35s-15 32 -71 32h-107c-126 0 -198 52 -198 132c0 59 32 95 69 120c-39 38 -61 91 -61 151c0 128 100 220 239 220c64 0 119 -19 160 -52c36 37 93 49 164 49zM277 258c49 0 84 34 84 82
s-35 82 -84 82s-84 -34 -84 -82s35 -82 84 -82z" />
    <glyph glyph-name="uni01EA" unicode="&#x1ea;" horiz-adv-x="796" 
d="M394 -12c-52 -24 -82 -68 -82 -98s14 -44 40 -44s39 18 48 36l64 -26c-21 -62 -69 -94 -134 -94c-72 0 -116 46 -116 109c0 56 37 102 81 131c-152 42 -259 177 -259 348c0 207 157 362 362 362s362 -155 362 -362s-157 -362 -362 -362h-4zM206 350
c0 -116 83 -202 192 -202s192 86 192 202s-83 202 -192 202s-192 -86 -192 -202z" />
    <glyph glyph-name="uni01EB" unicode="&#x1eb;" horiz-adv-x="622" 
d="M366 -8c-51 -24 -81 -68 -81 -98s14 -44 40 -44s39 18 48 36l64 -26c-21 -62 -69 -94 -134 -94c-72 0 -116 46 -116 109c0 48 27 89 63 118c-132 26 -221 135 -221 282c0 169 118 288 282 288s282 -119 282 -288c0 -150 -92 -260 -227 -283zM184 275
c0 -83 55 -144 127 -144s127 61 127 144s-55 144 -127 144s-127 -61 -127 -144z" />
    <glyph glyph-name="Aringacute" unicode="&#x1fa;" horiz-adv-x="698" 
d="M359 1140h183l-145 -150h-136zM349 727c-69 0 -121 51 -121 118c0 68 52 119 121 119s121 -51 121 -119c0 -67 -52 -118 -121 -118zM349 898c-28 0 -50 -23 -50 -53s22 -53 50 -53s50 23 50 53s-22 53 -50 53zM287 700h124l294 -692v-8h-175l-42 109h-278l-42 -109h-175
v8zM349 469l-87 -225h174z" />
    <glyph glyph-name="aringacute" unicode="&#x1fb;" horiz-adv-x="589" 
d="M312 1001h183l-145 -150h-136zM302 588c-69 0 -121 51 -121 118c0 68 52 119 121 119s121 -51 121 -119c0 -67 -52 -118 -121 -118zM302 759c-28 0 -50 -23 -50 -53s22 -53 50 -53s50 23 50 53s-22 53 -50 53zM281 561c156 0 257 -66 257 -244v-317h-163v25
c-34 -22 -78 -35 -127 -35c-130 0 -223 80 -223 190s93 190 223 190c49 0 92 -13 126 -35c-6 70 -52 96 -121 96c-56 0 -115 -21 -155 -44l-52 110c47 29 138 64 235 64zM283 105c59 0 98 32 98 77s-39 77 -98 77c-57 0 -98 -32 -98 -77s41 -77 98 -77z" />
    <glyph glyph-name="AEacute" unicode="&#x1fc;" horiz-adv-x="1072" 
d="M567 900h183l-145 -150h-136zM1007 700v-145h-331v-129h271v-139h-271v-142h331v-145h-501v109h-273l-77 -109h-193v9l506 691h538zM506 493l-177 -249h177v249z" />
    <glyph glyph-name="aeacute" unicode="&#x1fd;" horiz-adv-x="972" 
d="M510 750h183l-145 -150h-136zM671 560c186 0 292 -170 269 -346h-389c20 -51 64 -82 119 -82c42 0 79 20 103 53l122 -84c-51 -70 -126 -111 -224 -111c-49 0 -94 12 -133 32v-22h-163v25c-34 -22 -78 -35 -127 -35c-130 0 -223 80 -223 190s93 190 223 190
c49 0 92 -13 126 -35c-6 70 -52 96 -121 96c-56 0 -115 -21 -155 -44l-52 110c47 29 138 64 235 64c88 0 158 -21 203 -71c48 44 113 70 187 70zM670 416c-60 0 -106 -35 -122 -92h239c-13 50 -52 92 -117 92zM283 105c59 0 98 32 98 77s-39 77 -98 77
c-57 0 -98 -32 -98 -77s41 -77 98 -77z" />
    <glyph glyph-name="Oslashacute" unicode="&#x1fe;" horiz-adv-x="796" 
d="M418 912h183l-145 -150h-136zM752 700l-82 -106c56 -64 90 -148 90 -244c0 -207 -157 -362 -362 -362c-60 0 -116 13 -165 37l-20 -25h-169l82 106c-56 64 -90 148 -90 244c0 207 157 362 362 362c60 0 117 -13 166 -38l20 26h168zM206 350c0 -39 10 -75 27 -106l229 297
c-20 7 -41 11 -64 11c-109 0 -192 -86 -192 -202zM398 148c109 0 192 86 192 202c0 39 -10 75 -26 105l-229 -297c20 -6 41 -10 63 -10z" />
    <glyph glyph-name="oslashacute" unicode="&#x1ff;" horiz-adv-x="622" 
d="M331 763h183l-145 -150h-136zM590 550l-63 -82c42 -50 66 -116 66 -193c0 -169 -118 -288 -282 -288c-48 0 -93 10 -131 29l-13 -16h-133l62 81c-42 50 -67 117 -67 194c0 169 118 288 282 288c49 0 95 -11 134 -30l13 17h132zM184 275c0 -24 4 -45 12 -64l156 201
c-13 5 -27 7 -41 7c-72 0 -127 -61 -127 -144zM311 131c72 0 127 61 127 144c0 23 -4 44 -12 62l-153 -200c12 -4 24 -6 38 -6z" />
    <glyph glyph-name="uni0218" unicode="&#x218;" horiz-adv-x="628" 
d="M571 552l-143 -69c-27 51 -73 83 -133 83c-52 0 -84 -17 -84 -53c0 -35 24 -57 148 -94c131 -39 223 -87 223 -219c0 -150 -142 -212 -266 -212c-134 0 -242 63 -286 183l137 77c41 -79 94 -113 159 -113c57 0 89 20 89 58c0 40 -32 66 -137 100
c-106 34 -234 81 -234 221c0 139 126 198 257 198c141 0 228 -70 270 -160zM259 -240v186h120v-76l-41 -110h-79z" />
    <glyph glyph-name="uni0219" unicode="&#x219;" horiz-adv-x="508" 
d="M475 435l-131 -57c-17 30 -53 57 -97 57c-41 0 -63 -13 -63 -35c0 -26 18 -39 107 -62c114 -29 190 -70 190 -180c0 -120 -115 -173 -224 -173c-122 0 -209 45 -245 140l131 66c30 -57 75 -75 116 -75s64 14 64 45c0 26 -24 36 -87 53c-85 23 -209 64 -210 177
c1 115 109 173 226 173c113 0 191 -55 223 -129zM200 -241v186h120v-76l-41 -110h-79z" />
    <glyph glyph-name="uni021A" unicode="&#x21a;" horiz-adv-x="618" 
d="M30 700h558v-145h-194v-555h-170v555h-194v145zM331 -228h-79v186h120v-76z" />
    <glyph glyph-name="uni021B" unicode="&#x21b;" horiz-adv-x="385" 
d="M313 140h50v-140h-109c-120 0 -171 63 -171 169v256h-56v125h56v109l160 30v-139h105v-125h-105v-201c0 -65 16 -84 70 -84zM279 -228h-79v186h120v-76z" />
    <glyph glyph-name="uni0232" unicode="&#x232;" horiz-adv-x="664" 
d="M471 760h-278v97h278v-97zM331 449l140 251h191v-6l-246 -410v-284h-170v284l-244 410v6h191z" />
    <glyph glyph-name="uni0233" unicode="&#x233;" horiz-adv-x="544" 
d="M134 707h278v-97h-278v97zM275 239l95 311h166v-6l-200 -607c-60 -181 -152 -207 -297 -161l36 129c61 -17 97 -6 114 51l13 44l-196 544v6h171z" />
    <glyph glyph-name="uni0237" unicode="&#x237;" horiz-adv-x="282" 
d="M-105 -208l58 117c14 -6 38 -15 60 -15c29 0 48 20 48 65v591h160v-617c0 -129 -81 -187 -174 -187c-57 0 -111 22 -152 46z" />
    <glyph glyph-name="uni0259" unicode="&#x259;" horiz-adv-x="607" 
d="M301 560c160 0 277 -123 277 -285c0 -163 -117 -285 -277 -285c-186 0 -292 170 -269 346h389c-20 51 -64 82 -119 82c-42 0 -79 -20 -103 -53l-122 84c51 70 126 111 224 111zM302 134c60 0 106 35 122 92h-239c13 -50 52 -92 117 -92z" />
    <glyph glyph-name="circumflex" unicode="&#x2c6;" horiz-adv-x="513" 
d="M90 656l149 129l149 -129l-76 -72l-73 73l-73 -73z" />
    <glyph glyph-name="caron" unicode="&#x2c7;" horiz-adv-x="513" 
d="M388 713l-149 -129l-149 129l76 72l73 -73l73 73z" />
    <glyph glyph-name="breve" unicode="&#x2d8;" horiz-adv-x="526" 
d="M283 740l104 -15c-8 -90 -61 -143 -142 -143s-134 53 -142 143l104 15c1 -41 15 -63 38 -63s37 22 38 63z" />
    <glyph glyph-name="dotaccent" unicode="&#x2d9;" horiz-adv-x="428" 
d="M191 596c-38 0 -68 30 -68 68s30 68 68 68s68 -30 68 -68s-30 -68 -68 -68z" />
    <glyph glyph-name="ring" unicode="&#x2da;" horiz-adv-x="478" 
d="M226 577c-69 0 -121 51 -121 118c0 68 52 119 121 119s121 -51 121 -119c0 -67 -52 -118 -121 -118zM226 642c28 0 50 23 50 53s-22 53 -50 53s-50 -23 -50 -53s22 -53 50 -53z" />
    <glyph glyph-name="ogonek" unicode="&#x2db;" horiz-adv-x="424" 
d="M175 23l88 -21c-54 -23 -86 -69 -86 -100c0 -30 14 -44 40 -44s39 18 48 36l64 -26c-21 -62 -69 -94 -134 -94c-72 0 -116 46 -116 109c0 62 46 113 96 140z" />
    <glyph glyph-name="tilde" unicode="&#x2dc;" horiz-adv-x="527" 
d="M139 612l-52 58c29 37 67 68 113 68c61 0 64 -57 100 -57c24 0 40 15 55 33l52 -58c-25 -39 -68 -67 -110 -67c-63 0 -62 57 -101 57c-24 0 -43 -15 -57 -34z" />
    <glyph glyph-name="hungarumlaut" unicode="&#x2dd;" horiz-adv-x="547" 
d="M201 770h100l-83 -170h-83zM332 770h100l-83 -170h-83z" />
    <glyph glyph-name="gravecomb" unicode="&#x300;" 
d="M-439 750h183l98 -150h-136z" />
    <glyph glyph-name="acutecomb" unicode="&#x301;" 
d="M-371 600l98 150h183l-145 -150h-136z" />
    <glyph glyph-name="uni0302" unicode="&#x302;" 
d="M-388 656l149 129l149 -129l-76 -72l-73 73l-73 -73z" />
    <glyph glyph-name="tildecomb" unicode="&#x303;" 
d="M-355 612l-52 58c29 37 67 68 113 68c61 0 64 -57 100 -57c24 0 40 15 55 33l52 -58c-25 -39 -68 -67 -110 -67c-63 0 -62 57 -101 57c-24 0 -43 -15 -57 -34z" />
    <glyph glyph-name="uni0304" unicode="&#x304;" 
d="M-89 610h-278v97h278v-97z" />
    <glyph glyph-name="uni0306" unicode="&#x306;" 
d="M-208 740l104 -15c-8 -90 -61 -143 -142 -143s-134 53 -142 143l104 15c1 -41 15 -63 38 -63s37 22 38 63z" />
    <glyph glyph-name="uni0307" unicode="&#x307;" 
d="M-190 596c-38 0 -68 30 -68 68s30 68 68 68s68 -30 68 -68s-30 -68 -68 -68z" />
    <glyph glyph-name="uni0308" unicode="&#x308;" 
d="M-343 596c-38 0 -68 30 -68 68s30 68 68 68s68 -30 68 -68s-30 -68 -68 -68zM-165 596c-38 0 -68 30 -68 68s30 68 68 68s68 -30 68 -68s-30 -68 -68 -68z" />
    <glyph glyph-name="uni030A" unicode="&#x30a;" 
d="M-216 577c-69 0 -121 51 -121 118c0 68 52 119 121 119s121 -51 121 -119c0 -67 -52 -118 -121 -118zM-216 642c28 0 50 23 50 53s-22 53 -50 53s-50 -23 -50 -53s22 -53 50 -53z" />
    <glyph glyph-name="uni030B" unicode="&#x30b;" 
d="M-402 770h100l-83 -170h-83zM-271 770h100l-83 -170h-83z" />
    <glyph glyph-name="uni030C" unicode="&#x30c;" 
d="M-90 713l-149 -129l-149 129l76 72l73 -73l73 73z" />
    <glyph glyph-name="uni0312" unicode="&#x312;" 
d="M-119 759l-60 -159h-131l75 159h116z" />
    <glyph glyph-name="uni0326" unicode="&#x326;" 
d="M-329 -228v186h120v-76l-41 -110h-79z" />
    <glyph glyph-name="uni0327" unicode="&#x327;" 
d="M-155 9l-18 -60c42 -9 55 -41 55 -64c0 -48 -40 -86 -115 -86c-40 0 -85 14 -116 33l29 60c24 -12 56 -24 77 -24c22 0 30 6 30 21c0 17 -15 27 -50 34l20 94h88v-8z" />
    <glyph glyph-name="uni0328" unicode="&#x328;" 
d="M-224 23l88 -21c-54 -23 -86 -69 -86 -100c0 -30 14 -44 40 -44s39 18 48 36l64 -26c-21 -62 -69 -94 -134 -94c-72 0 -116 46 -116 109c0 62 46 113 96 140z" />
    <glyph glyph-name="uni0335" unicode="&#x335;" 
d="M-333 286v126h332v-126h-332z" />
    <glyph glyph-name="uni0336" unicode="&#x336;" 
d="M-641 226v116h641v-116h-641z" />
    <glyph glyph-name="uni0337" unicode="&#x337;" 
d="M-348 320l347 280v-160l-347 -280v160z" />
    <glyph glyph-name="uni0338" unicode="&#x338;" 
d="M-709 0l540 700h168l-539 -700h-169z" />
    <glyph glyph-name="uni0394" unicode="&#x394;" horiz-adv-x="680" 
d="M257 700h166l264 -700h-694zM340 502l-127 -364h254z" />
    <glyph glyph-name="uni03A9" unicode="&#x3a9;" horiz-adv-x="779" 
d="M743 370c0 -99 -42 -178 -108 -230h94v-140h-303v140c86 28 147 114 147 210c0 115 -76 196 -183 196c-108 0 -184 -81 -184 -196c0 -96 61 -182 147 -210v-140h-303v140h94c-66 52 -108 131 -108 230c0 193 147 336 354 336s353 -143 353 -336z" />
    <glyph glyph-name="uni03BC" unicode="&#x3bc;" horiz-adv-x="688" 
d="M583 140h83v-140h-179v19c-28 -16 -62 -24 -101 -24c-68 0 -126 25 -165 72v-267h-160v750h160v-309c0 -68 41 -112 101 -112s101 44 101 112v309h160v-410z" />
    <glyph glyph-name="pi" unicode="&#x3c0;" horiz-adv-x="654" 
d="M632 550v-140h-87v-221c0 -36 13 -49 50 -49h37v-140h-61c-126 0 -186 48 -186 159v251h-114v-410h-160v410h-84v140h605z" />
    <glyph glyph-name="uni0400" unicode="&#x400;" horiz-adv-x="642" 
d="M145 900h183l98 -150h-136zM577 700v-145h-331v-129h271v-139h-271v-142h331v-145h-501v700h501z" />
    <glyph glyph-name="uni0401" unicode="&#x401;" horiz-adv-x="642" 
d="M251 746c-38 0 -68 30 -68 68s30 68 68 68s68 -30 68 -68s-30 -68 -68 -68zM429 746c-38 0 -68 30 -68 68s30 68 68 68s68 -30 68 -68s-30 -68 -68 -68zM577 700v-145h-331v-129h271v-139h-271v-142h331v-145h-501v700h501z" />
    <glyph glyph-name="uni0402" unicode="&#x402;" horiz-adv-x="817" 
d="M394 451h138c160 0 255 -70 255 -226c0 -145 -95 -225 -255 -225h-74v145h52c67 0 107 26 107 80s-40 81 -107 81h-116v-306h-170v555h-194v145h650v-145h-286v-104z" />
    <glyph glyph-name="uni0403" unicode="&#x403;" horiz-adv-x="595" 
d="M234 750l98 150h183l-145 -150h-136zM547 700v-145h-301v-555h-170v700h471z" />
    <glyph glyph-name="uni0404" unicode="&#x404;" horiz-adv-x="721" 
d="M398 148c68 0 125 33 159 86l142 -91c-64 -95 -173 -155 -301 -155c-205 0 -362 155 -362 362s157 362 362 362c128 0 237 -60 301 -156l-145 -86c-34 51 -90 82 -156 82c-86 0 -155 -53 -181 -132h237v-145h-235c27 -76 95 -127 179 -127z" />
    <glyph glyph-name="uni0405" unicode="&#x405;" horiz-adv-x="628" 
d="M571 552l-143 -69c-27 51 -73 83 -133 83c-52 0 -84 -17 -84 -53c0 -35 24 -57 148 -94c131 -39 223 -87 223 -219c0 -150 -142 -212 -266 -212c-134 0 -242 63 -286 183l137 77c41 -79 94 -113 159 -113c57 0 89 20 89 58c0 40 -32 66 -137 100
c-106 34 -234 81 -234 221c0 139 126 198 257 198c141 0 228 -70 270 -160z" />
    <glyph glyph-name="uni0406" unicode="&#x406;" horiz-adv-x="322" 
d="M76 0v700h170v-700h-170z" />
    <glyph glyph-name="uni0407" unicode="&#x407;" horiz-adv-x="322" 
d="M72 746c-38 0 -68 30 -68 68s30 68 68 68s68 -30 68 -68s-30 -68 -68 -68zM250 746c-38 0 -68 30 -68 68s30 68 68 68s68 -30 68 -68s-30 -68 -68 -68zM76 0v700h170v-700h-170z" />
    <glyph glyph-name="uni0408" unicode="&#x408;" horiz-adv-x="532" 
d="M-12 146l152 60c11 -40 39 -66 80 -66c39 0 70 23 70 80v480h170v-480c0 -148 -87 -231 -232 -231c-116 0 -204 51 -240 157z" />
    <glyph glyph-name="uni0409" unicode="&#x409;" horiz-adv-x="1101" 
d="M672 499h138c160 0 255 -90 255 -250c0 -149 -95 -249 -255 -249h-308v555h-208l-5 -245c-5 -249 -66 -310 -232 -310h-33v154h24c50 0 69 31 71 143l8 403h545v-201zM672 145h116c67 0 107 46 107 104c0 68 -40 105 -107 105h-116v-209z" />
    <glyph glyph-name="uni040A" unicode="&#x40a;" horiz-adv-x="1123" 
d="M694 459h138c160 0 255 -70 255 -230c0 -149 -95 -229 -255 -229h-308v314h-278v-314h-170v700h170v-241h278v241h170v-241zM694 145h116c67 0 107 26 107 84s-40 85 -107 85h-116v-169z" />
    <glyph glyph-name="uni040B" unicode="&#x40b;" horiz-adv-x="824" 
d="M543 457c146 0 244 -73 244 -246v-211h-170v211c0 74 -43 101 -110 101c-39 0 -74 -7 -113 -18v-294h-170v555h-194v145h648v-145h-284v-117c46 11 97 19 149 19z" />
    <glyph glyph-name="uni040C" unicode="&#x40c;" horiz-adv-x="677" 
d="M378 900h183l-145 -150h-136zM662 695l-188 -324l200 -366v-5h-179l-158 294h-91v-294h-170v700h170v-261h90l145 261h181v-5z" />
    <glyph glyph-name="uni040D" unicode="&#x40d;" horiz-adv-x="765" 
d="M184 900h183l98 -150h-136zM229 0h-153v700h167v-430l293 430h153v-700h-167v430z" />
    <glyph glyph-name="uni040E" unicode="&#x40e;" horiz-adv-x="658" 
d="M333 743c-114 0 -167 58 -164 157h118c0 -35 15 -52 46 -52s46 17 46 52h119c1 -99 -51 -157 -165 -157zM333 346l139 354h180v-6l-233 -510c-59 -130 -125 -184 -253 -184c-18 0 -52 4 -78 9l17 135c15 -2 35 -3 52 -3c48 0 71 12 91 43l-236 510v6h180z" />
    <glyph glyph-name="uni040F" unicode="&#x40f;" horiz-adv-x="770" 
d="M524 700h170v-700h-224v-150h-170v150h-224v700h170v-555h278v555z" />
    <glyph glyph-name="uni0410" unicode="&#x410;" horiz-adv-x="698" 
d="M287 700h124l294 -692v-8h-175l-42 109h-278l-42 -109h-175v8zM349 469l-87 -225h174z" />
    <glyph glyph-name="uni0411" unicode="&#x411;" horiz-adv-x="672" 
d="M246 433h162c160 0 234 -87 234 -217c0 -129 -74 -216 -234 -216h-332v700h499v-145h-329v-122zM246 145h142c66 0 92 23 92 71c0 49 -26 72 -92 72h-142v-143z" />
    <glyph glyph-name="uni0412" unicode="&#x412;" horiz-adv-x="669" 
d="M552 367c56 -28 87 -91 87 -164c0 -133 -82 -203 -221 -203h-342v700h327c134 0 213 -74 213 -199c0 -62 -25 -109 -64 -134zM378 563h-138v-138h138c55 0 80 23 80 68s-25 70 -80 70zM240 137h155c57 0 84 29 84 82s-27 80 -84 80h-155v-162z" />
    <glyph glyph-name="uni0413" unicode="&#x413;" horiz-adv-x="595" 
d="M547 700v-145h-301v-555h-170v700h471z" />
    <glyph glyph-name="uni0414" unicode="&#x414;" horiz-adv-x="794" 
d="M693 700v-555h76v-295h-170v150h-409v-150h-170v295h39c50 0 67 31 71 143l16 412h547zM273 145h250v410h-213l-10 -225c-3 -76 -11 -137 -27 -185z" />
    <glyph glyph-name="uni0415" unicode="&#x415;" horiz-adv-x="642" 
d="M577 700v-145h-331v-129h271v-139h-271v-142h331v-145h-501v700h501z" />
    <glyph glyph-name="uni0416" unicode="&#x416;" horiz-adv-x="1032" 
d="M1017 695l-188 -324l200 -366v-5h-174l-158 294h-96v-294h-170v294h-96l-158 -294h-174v5l200 366l-188 324v5h176l145 -261h95v261h170v-261h95l145 261h176v-5z" />
    <glyph glyph-name="uni0417" unicode="&#x417;" horiz-adv-x="609" 
d="M479 364c58 -26 100 -83 100 -165c0 -119 -95 -210 -278 -210c-152 0 -236 63 -279 135l120 80c35 -46 89 -70 154 -70c72 0 119 29 119 82c0 47 -33 78 -116 78h-91v128h83c74 0 104 31 104 73c0 43 -42 71 -106 71c-63 0 -106 -18 -151 -63l-107 85
c53 66 131 123 264 123c165 0 264 -85 264 -202c0 -66 -29 -117 -80 -145z" />
    <glyph glyph-name="uni0418" unicode="&#x418;" horiz-adv-x="765" 
d="M229 0h-153v700h167v-430l293 430h153v-700h-167v430z" />
    <glyph glyph-name="uni0419" unicode="&#x419;" horiz-adv-x="765" 
d="M381 743c-114 0 -167 58 -164 157h118c0 -35 15 -52 46 -52s46 17 46 52h119c1 -99 -51 -157 -165 -157zM243 270l293 430h153v-700h-167v430l-293 -430h-153v700h167v-430z" />
    <glyph glyph-name="uni041A" unicode="&#x41a;" horiz-adv-x="677" 
d="M662 695l-188 -324l200 -366v-5h-179l-158 294h-91v-294h-170v700h170v-261h90l145 261h181v-5z" />
    <glyph glyph-name="uni041B" unicode="&#x41b;" horiz-adv-x="748" 
d="M672 700v-700h-170v555h-205l-8 -245c-8 -249 -72 -310 -246 -310h-19v154h14c56 0 78 31 81 143l12 403h541z" />
    <glyph glyph-name="uni041C" unicode="&#x41c;" horiz-adv-x="920" 
d="M460 354l236 346h148v-700h-164v400l-200 -286h-40l-200 286v-400h-164v700h148z" />
    <glyph glyph-name="uni041D" unicode="&#x41d;" horiz-adv-x="770" 
d="M524 439v261h170v-700h-170v294h-278v-294h-170v700h170v-261h278z" />
    <glyph glyph-name="uni041E" unicode="&#x41e;" horiz-adv-x="796" 
d="M398 -12c-205 0 -362 155 -362 362s157 362 362 362s362 -155 362 -362s-157 -362 -362 -362zM398 148c109 0 192 86 192 202s-83 202 -192 202s-192 -86 -192 -202s83 -202 192 -202z" />
    <glyph glyph-name="uni041F" unicode="&#x41f;" horiz-adv-x="770" 
d="M246 0h-170v700h618v-700h-170v555h-278v-555z" />
    <glyph glyph-name="uni0420" unicode="&#x420;" horiz-adv-x="675" 
d="M76 700h308c160 0 255 -100 255 -249c0 -160 -95 -250 -255 -250h-138v-201h-170v700zM246 346h116c67 0 107 37 107 105c0 58 -40 104 -107 104h-116v-209z" />
    <glyph glyph-name="uni0421" unicode="&#x421;" horiz-adv-x="650" 
d="M400 141c58 0 110 25 137 55l101 -111c-56 -64 -141 -97 -248 -97c-202 0 -354 154 -354 362s152 362 354 362c107 0 192 -33 248 -97l-101 -111c-27 30 -79 55 -137 55c-113 0 -199 -87 -199 -209s86 -209 199 -209z" />
    <glyph glyph-name="uni0422" unicode="&#x422;" horiz-adv-x="618" 
d="M30 700h558v-145h-194v-555h-170v555h-194v145z" />
    <glyph glyph-name="uni0423" unicode="&#x423;" horiz-adv-x="658" 
d="M333 346l139 354h180v-6l-233 -510c-59 -130 -125 -184 -253 -184c-18 0 -52 4 -78 9l17 135c15 -2 35 -3 52 -3c48 0 71 12 91 43l-236 510v6h180z" />
    <glyph glyph-name="uni0424" unicode="&#x424;" horiz-adv-x="976" 
d="M940 350c0 -203 -135 -337 -367 -342v-88h-170v88c-233 6 -367 139 -367 342s134 336 367 342v88h170v-88c233 -6 367 -139 367 -342zM206 350c0 -122 66 -190 199 -194v388c-133 -4 -199 -72 -199 -194zM571 544v-388c133 4 199 72 199 194s-66 190 -199 194z" />
    <glyph glyph-name="uni0425" unicode="&#x425;" horiz-adv-x="713" 
d="M710 6v-6h-196l-157 246l-158 -246h-196l2 6l240 356l-226 332v6h196l142 -222l141 222h196v-6l-226 -332z" />
    <glyph glyph-name="uni0426" unicode="&#x426;" horiz-adv-x="791" 
d="M689 700v-555h77v-295h-170v150h-520v700h170v-555h273v555h170z" />
    <glyph glyph-name="uni0427" unicode="&#x427;" horiz-adv-x="675" 
d="M36 700h170v-211c0 -74 43 -105 110 -105c39 0 74 6 113 15v301h170v-700h-170v254c-46 -10 -89 -15 -135 -15c-165 0 -258 84 -258 250v211z" />
    <glyph glyph-name="uni0428" unicode="&#x428;" horiz-adv-x="1118" 
d="M872 145v555h170v-700h-966v700h170v-555h228v555h170v-555h228z" />
    <glyph glyph-name="uni0429" unicode="&#x429;" horiz-adv-x="1144" 
d="M1042 700v-555h77v-295h-170v150h-873v700h170v-555h228v555h170v-555h228v555h170z" />
    <glyph glyph-name="uni042A" unicode="&#x42a;" horiz-adv-x="823" 
d="M394 499h138c160 0 255 -90 255 -250c0 -149 -95 -249 -255 -249h-308v555h-194v145h364v-201zM394 145h116c67 0 107 46 107 104c0 68 -40 105 -107 105h-116v-209z" />
    <glyph glyph-name="uni042B" unicode="&#x42b;" horiz-adv-x="954" 
d="M384 0h-308v700h170v-201h138c160 0 255 -90 255 -250c0 -149 -95 -249 -255 -249zM708 0v700h170v-700h-170zM246 354v-209h116c67 0 107 46 107 104c0 68 -40 105 -107 105h-116z" />
    <glyph glyph-name="uni042C" unicode="&#x42c;" horiz-adv-x="675" 
d="M384 0h-308v700h170v-201h138c160 0 255 -90 255 -250c0 -149 -95 -249 -255 -249zM246 354v-209h116c67 0 107 46 107 104c0 68 -40 105 -107 105h-116z" />
    <glyph glyph-name="uni042D" unicode="&#x42d;" horiz-adv-x="721" 
d="M323 712c205 0 362 -155 362 -362s-157 -362 -362 -362c-128 0 -237 60 -301 155l142 91c34 -53 91 -86 159 -86c84 0 152 51 179 127h-235v145h237c-26 79 -95 132 -181 132c-66 0 -122 -31 -156 -82l-145 86c64 96 173 156 301 156z" />
    <glyph glyph-name="uni042E" unicode="&#x42e;" horiz-adv-x="1068" 
d="M680 712c205 0 352 -155 352 -362s-147 -362 -352 -362c-183 0 -319 123 -347 296h-87v-284h-170v700h170v-271h89c33 166 167 283 345 283zM680 148c109 0 182 86 182 202s-73 202 -182 202s-182 -86 -182 -202s73 -202 182 -202z" />
    <glyph glyph-name="uni042F" unicode="&#x42f;" horiz-adv-x="680" 
d="M280 700h324v-700h-170v245h-103l-130 -245h-177v8l145 256c-84 33 -130 107 -130 209c0 140 89 227 241 227zM302 390h132v165h-132c-59 0 -93 -33 -93 -82c0 -50 34 -83 93 -83z" />
    <glyph glyph-name="uni0430" unicode="&#x430;" horiz-adv-x="589" 
d="M281 561c156 0 257 -66 257 -244v-317h-163v25c-34 -22 -78 -35 -127 -35c-130 0 -223 80 -223 190s93 190 223 190c49 0 92 -13 126 -35c-6 70 -52 96 -121 96c-56 0 -115 -21 -155 -44l-52 110c47 29 138 64 235 64zM283 105c59 0 98 32 98 77s-39 77 -98 77
c-57 0 -98 -32 -98 -77s41 -77 98 -77z" />
    <glyph glyph-name="uni0431" unicode="&#x431;" horiz-adv-x="602" 
d="M322 513c129 0 251 -91 251 -258s-118 -268 -272 -268s-272 101 -272 276v31c0 186 52 317 207 372l45 16c72 26 87 37 92 68h149c-4 -80 -27 -136 -140 -170l-46 -14c-87 -26 -134 -52 -156 -106c33 31 81 53 142 53zM301 131c67 0 117 48 117 124
c0 78 -50 124 -117 124c-66 0 -117 -46 -117 -124c0 -76 51 -124 117 -124z" />
    <glyph glyph-name="uni0432" unicode="&#x432;" horiz-adv-x="586" 
d="M479 284c47 -20 72 -67 72 -123c0 -100 -65 -161 -176 -161h-314v550h298c107 0 170 -56 170 -156c0 -49 -19 -88 -50 -110zM312 440h-91v-107h91c44 0 64 22 64 55s-20 52 -64 52zM221 113h109c43 0 62 20 62 54c0 35 -19 55 -62 55h-109v-109z" />
    <glyph glyph-name="uni0433" unicode="&#x433;" horiz-adv-x="452" 
d="M221 0h-160l1 550h372v-144h-212z" />
    <glyph glyph-name="uni0434" unicode="&#x434;" horiz-adv-x="615" 
d="M543 549v-405h62v-278h-155v134h-289v-134h-155v278h27c40 0 54 25 56 91l10 314h444zM234 144h149v261h-129l-4 -141c-1 -44 -6 -85 -16 -120z" />
    <glyph glyph-name="uni0435" unicode="&#x435;" horiz-adv-x="607" 
d="M306 560c186 0 292 -170 269 -346h-389c20 -51 64 -82 119 -82c42 0 79 20 103 53l122 -84c-51 -70 -126 -111 -224 -111c-160 0 -277 123 -277 285c0 163 117 285 277 285zM305 416c-60 0 -106 -35 -122 -92h239c-13 50 -52 92 -117 92z" />
    <glyph glyph-name="uni0436" unicode="&#x436;" horiz-adv-x="874" 
d="M860 546l-147 -275l151 -267v-4h-170l-108 197h-68v-197h-160v197h-70l-108 -197h-170v4l151 267l-147 275v4h176l105 -209h62v208h160v-208h62l105 209h176v-4z" />
    <glyph glyph-name="uni0437" unicode="&#x437;" horiz-adv-x="535" 
d="M428 282c45 -22 72 -63 72 -127c0 -100 -75 -165 -240 -165c-158 0 -221 53 -245 143l146 35c8 -35 44 -55 96 -55c54 0 83 18 83 50c0 33 -26 51 -76 51h-64v127h64c48 0 70 19 70 50s-29 49 -83 49c-53 0 -80 -13 -92 -52l-138 20c10 88 92 152 240 152
c151 0 227 -67 227 -165c0 -49 -20 -91 -60 -113z" />
    <glyph glyph-name="uni0438" unicode="&#x438;" horiz-adv-x="624" 
d="M231 0h-170v550h160v-285l172 285h170v-550h-160v285z" />
    <glyph glyph-name="uni0439" unicode="&#x439;" horiz-adv-x="624" 
d="M318 603c-114 0 -167 58 -164 157h118c0 -35 15 -52 46 -52s46 17 46 52h119c1 -99 -51 -157 -165 -157zM221 265l172 285h170v-550h-160v285l-172 -285h-170v550h160v-285z" />
    <glyph glyph-name="uni043A" unicode="&#x43a;" horiz-adv-x="579" 
d="M565 546l-147 -275l151 -267v-4h-173l-108 197h-67v-197h-160l1 549h160v-208h59l105 209h179v-4z" />
    <glyph glyph-name="uni043B" unicode="&#x43b;" horiz-adv-x="610" 
d="M58 0h-48v146h17c40 0 54 23 56 89l10 314h456v-549h-160v405h-141l-5 -172c-5 -160 -39 -233 -185 -233z" />
    <glyph glyph-name="uni043C" unicode="&#x43c;" horiz-adv-x="766" 
d="M379 271l160 279h166v-550h-160v278l-122 -208h-80l-122 208v-278h-160v550h168z" />
    <glyph glyph-name="uni043D" unicode="&#x43d;" horiz-adv-x="624" 
d="M403 349v200h160v-549h-160v205h-182v-205h-160v549h160v-200h182z" />
    <glyph glyph-name="uni043E" unicode="&#x43e;" horiz-adv-x="622" 
d="M311 -13c-164 0 -282 119 -282 288s118 288 282 288s282 -119 282 -288s-118 -288 -282 -288zM311 131c72 0 127 61 127 144s-55 144 -127 144s-127 -61 -127 -144s55 -144 127 -144z" />
    <glyph glyph-name="uni043F" unicode="&#x43f;" horiz-adv-x="624" 
d="M221 0h-160v549h502v-549h-160v405h-182v-405z" />
    <glyph glyph-name="uni0440" unicode="&#x440;" horiz-adv-x="666" 
d="M384 558c147 0 253 -122 253 -283s-106 -283 -253 -283c-70 0 -125 24 -163 70v-262h-160v750h160v-62c38 46 93 70 163 70zM349 132c76 0 128 61 128 143s-52 143 -128 143c-72 0 -127 -61 -127 -143s55 -143 127 -143z" />
    <glyph glyph-name="uni0441" unicode="&#x441;" horiz-adv-x="576" 
d="M29 275c0 169 115 286 281 286c104 0 200 -61 239 -147l-128 -66c-24 41 -66 70 -111 70c-75 0 -128 -59 -128 -143s53 -143 128 -143c46 0 88 30 111 71l128 -67c-39 -86 -135 -147 -239 -147c-166 0 -281 117 -281 286z" />
    <glyph glyph-name="uni0442" unicode="&#x442;" horiz-adv-x="514" 
d="M494 550v-144h-157v-406h-160v406h-157v144h474z" />
    <glyph glyph-name="uni0443" unicode="&#x443;" horiz-adv-x="544" 
d="M275 239l95 311h166v-6l-200 -607c-60 -181 -152 -207 -297 -161l36 129c61 -17 97 -6 114 51l13 44l-196 544v6h171z" />
    <glyph glyph-name="uni0444" unicode="&#x444;" horiz-adv-x="878" 
d="M630 563c131 0 219 -119 219 -288s-88 -288 -219 -288c-42 0 -80 15 -111 42v-229h-160v229c-31 -27 -69 -42 -111 -42c-131 0 -219 119 -219 288s88 288 219 288c43 0 80 -14 111 -39v226h160v-226c31 25 68 39 111 39zM277 131c62 0 91 61 91 144s-29 144 -91 144
c-59 0 -93 -61 -93 -144s34 -144 93 -144zM601 131c59 0 93 61 93 144s-34 144 -93 144c-62 0 -91 -61 -91 -144s29 -144 91 -144z" />
    <glyph glyph-name="uni0445" unicode="&#x445;" horiz-adv-x="573" 
d="M579 5v-5h-181l-111 171l-112 -171h-181v5l191 282l-169 258v5h180l91 -157l90 157h180v-5l-168 -258z" />
    <glyph glyph-name="uni0446" unicode="&#x446;" horiz-adv-x="635" 
d="M563 549v-405h62v-278h-155v134h-409v549h160v-405h182v405h160z" />
    <glyph glyph-name="uni0447" unicode="&#x447;" horiz-adv-x="583" 
d="M362 327v223h160v-550h-160v189c-34 -7 -77 -12 -115 -12c-147 0 -212 62 -212 196v177h160v-157c0 -57 22 -75 83 -75c30 0 63 4 84 9z" />
    <glyph glyph-name="uni0448" unicode="&#x448;" horiz-adv-x="906" 
d="M845 0h-784v549h160v-405h152v405h160v-405h152v405h160v-549z" />
    <glyph glyph-name="uni0449" unicode="&#x449;" horiz-adv-x="917" 
d="M845 549v-405h62v-278h-155v134h-691v549h160v-405h152v405h160v-405h152v405h160z" />
    <glyph glyph-name="uni044A" unicode="&#x44a;" horiz-adv-x="674" 
d="M337 373h127c125 0 190 -70 190 -186s-65 -187 -190 -187h-287v405h-157v145h317v-177zM337 133h92c40 0 65 17 65 54c0 38 -25 55 -65 55h-92v-109z" />
    <glyph glyph-name="uni044B" unicode="&#x44b;" horiz-adv-x="823" 
d="M348 0h-287v550h160v-177h127c125 0 190 -70 190 -186s-65 -187 -190 -187zM762 0h-160v550h160v-550zM221 242v-109h92c40 0 65 17 65 54c0 38 -25 55 -65 55h-92z" />
    <glyph glyph-name="uni044C" unicode="&#x44c;" horiz-adv-x="558" 
d="M348 0h-287v550h160v-177h127c125 0 190 -70 190 -186s-65 -187 -190 -187zM221 242v-109h92c40 0 65 17 65 54c0 38 -25 55 -65 55h-92z" />
    <glyph glyph-name="uni044D" unicode="&#x44d;" horiz-adv-x="546" 
d="M235 563c164 0 282 -119 282 -288s-118 -288 -282 -288c-95 0 -168 39 -219 114l122 84c21 -35 53 -54 97 -54c53 0 97 33 116 84h-171v134h165c-21 43 -62 70 -110 70c-44 0 -75 -19 -97 -48l-126 87c46 59 128 105 223 105z" />
    <glyph glyph-name="uni044E" unicode="&#x44e;" horiz-adv-x="861" 
d="M560 563c164 0 272 -119 272 -288s-108 -288 -272 -288c-138 0 -237 85 -264 213h-75v-200h-160v550h160v-206h73c26 131 125 219 266 219zM560 131c72 0 117 61 117 144s-45 144 -117 144s-117 -61 -117 -144s45 -144 117 -144z" />
    <glyph glyph-name="uni044F" unicode="&#x44f;" horiz-adv-x="583" 
d="M522 0h-160v177h-58l-101 -177h-173v4l112 190c-65 27 -98 87 -98 170c0 116 65 186 190 186h287zM269 310h92v109h-92c-40 0 -65 -17 -65 -55c0 -37 25 -54 65 -54z" />
    <glyph glyph-name="uni0450" unicode="&#x450;" horiz-adv-x="607" 
d="M292 760l98 -150h-136l-145 150h183zM306 560c186 0 292 -170 269 -346h-389c20 -51 64 -82 119 -82c42 0 79 20 103 53l122 -84c-51 -70 -126 -111 -224 -111c-160 0 -277 123 -277 285c0 163 117 285 277 285zM305 416c-60 0 -106 -35 -122 -92h239
c-13 50 -52 92 -117 92z" />
    <glyph glyph-name="uni0451" unicode="&#x451;" horiz-adv-x="607" 
d="M217 606c-38 0 -68 30 -68 68s30 68 68 68s68 -30 68 -68s-30 -68 -68 -68zM395 606c-38 0 -68 30 -68 68s30 68 68 68s68 -30 68 -68s-30 -68 -68 -68zM306 560c186 0 292 -170 269 -346h-389c20 -51 64 -82 119 -82c42 0 79 20 103 53l122 -84
c-51 -70 -126 -111 -224 -111c-160 0 -277 123 -277 285c0 163 117 285 277 285zM305 416c-60 0 -106 -35 -122 -92h239c-13 50 -52 92 -117 92z" />
    <glyph glyph-name="uni0452" unicode="&#x452;" horiz-adv-x="642" 
d="M387 485c128 0 204 -88 204 -246v-306c0 -129 -81 -187 -174 -187c-51 0 -99 12 -137 26l42 130c21 -6 34 -8 51 -8c39 0 58 20 58 65v280c0 68 -41 112 -101 112s-101 -44 -101 -112v-239h-160v544h-99v134h99v72h160v-72h195v-134h-195v-127c37 44 92 68 158 68z" />
    <glyph glyph-name="uni0453" unicode="&#x453;" horiz-adv-x="452" 
d="M171 600l98 150h183l-145 -150h-136zM221 0h-160l1 550h372v-144h-212z" />
    <glyph glyph-name="uni0454" unicode="&#x454;" horiz-adv-x="546" 
d="M311 131c44 0 76 19 97 54l122 -84c-51 -75 -124 -114 -219 -114c-164 0 -282 119 -282 288s118 288 282 288c95 0 177 -46 223 -105l-126 -87c-22 29 -53 48 -97 48c-48 0 -89 -27 -110 -70h165v-134h-171c19 -51 63 -84 116 -84z" />
    <glyph glyph-name="uni0455" unicode="&#x455;" horiz-adv-x="508" 
d="M475 435l-131 -57c-17 30 -53 57 -97 57c-41 0 -63 -13 -63 -35c0 -26 18 -39 107 -62c114 -29 190 -70 190 -180c0 -120 -115 -173 -224 -173c-122 0 -209 45 -245 140l131 66c30 -57 75 -75 116 -75s64 14 64 45c0 26 -24 36 -87 53c-85 23 -209 64 -210 177
c1 115 109 173 226 173c113 0 191 -55 223 -129z" />
    <glyph glyph-name="uni0456" unicode="&#x456;" horiz-adv-x="282" 
d="M141 604c-54 0 -96 42 -96 96s42 96 96 96s96 -42 96 -96s-42 -96 -96 -96zM221 0h-160v550h160v-550z" />
    <glyph glyph-name="uni0457" unicode="&#x457;" horiz-adv-x="282" 
d="M52 596c-38 0 -68 30 -68 68s30 68 68 68s68 -30 68 -68s-30 -68 -68 -68zM230 596c-38 0 -68 30 -68 68s30 68 68 68s68 -30 68 -68s-30 -68 -68 -68zM221 0h-160v550h160v-550z" />
    <glyph glyph-name="uni0458" unicode="&#x458;" horiz-adv-x="268" 
d="M127 604c-54 0 -96 42 -96 96c0 53 42 95 96 95s96 -42 96 -95c0 -54 -42 -96 -96 -96zM-119 -208l58 117c14 -6 38 -15 60 -15c29 0 48 20 48 65v591h160v-617c0 -129 -81 -187 -174 -187c-57 0 -111 22 -152 46z" />
    <glyph glyph-name="uni0459" unicode="&#x459;" horiz-adv-x="891" 
d="M549 373h132c125 0 190 -70 190 -186s-65 -187 -190 -187h-292v405h-141l-5 -172c-5 -160 -39 -233 -185 -233h-48v146h17c40 0 54 23 56 89l10 314h456v-176zM549 133h97c40 0 65 17 65 54c0 38 -25 55 -65 55h-97v-109z" />
    <glyph glyph-name="uni045A" unicode="&#x45a;" horiz-adv-x="900" 
d="M563 369h127c125 0 190 -67 190 -183s-65 -186 -190 -186h-287v235h-182v-235h-160v549h160v-180h182v180h160v-180zM563 133h92c40 0 65 14 65 51c0 38 -25 51 -65 51h-92v-102z" />
    <glyph glyph-name="uni045B" unicode="&#x45b;" horiz-adv-x="642" 
d="M387 485c128 0 204 -88 204 -246v-239h-160v239c0 68 -41 112 -101 112s-101 -44 -101 -112v-239h-160v544h-99v134h99v72h160v-72h195v-134h-195v-127c37 44 92 68 158 68z" />
    <glyph glyph-name="uni045C" unicode="&#x45c;" horiz-adv-x="579" 
d="M318 750h183l-145 -150h-136zM565 546l-147 -275l151 -267v-4h-173l-108 197h-67v-197h-160l1 549h160v-208h59l105 209h179v-4z" />
    <glyph glyph-name="uni045D" unicode="&#x45d;" horiz-adv-x="624" 
d="M121 760h183l98 -150h-136zM231 0h-170v550h160v-285l172 285h170v-550h-160v285z" />
    <glyph glyph-name="uni045E" unicode="&#x45e;" horiz-adv-x="544" 
d="M273 593c-114 0 -167 58 -164 157h118c0 -35 15 -52 46 -52s46 17 46 52h119c1 -99 -51 -157 -165 -157zM275 239l95 311h166v-6l-200 -607c-60 -181 -152 -207 -297 -161l36 129c61 -17 97 -6 114 51l13 44l-196 544v6h171z" />
    <glyph glyph-name="uni045F" unicode="&#x45f;" horiz-adv-x="624" 
d="M403 549h160v-549h-173v-134h-155v134h-174v549h160v-405h182v405z" />
    <glyph glyph-name="uni0462" unicode="&#x462;" horiz-adv-x="757" 
d="M354 411h142c140 0 231 -58 231 -206s-91 -205 -231 -205h-312v475h-154v145h154v80h170v-80h234v-145h-234v-64zM354 145h123c53 0 80 18 80 60s-27 61 -80 61h-123v-121z" />
    <glyph glyph-name="uni0463" unicode="&#x463;" horiz-adv-x="566" 
d="M229 373h127c125 0 190 -70 190 -186s-65 -187 -190 -187h-287v474h-99v134h99v142h160v-142h195v-134h-195v-101zM229 133h92c40 0 65 17 65 54c0 38 -25 55 -65 55h-92v-109z" />
    <glyph glyph-name="uni0490" unicode="&#x490;" horiz-adv-x="595" 
d="M377 700v150h170v-295h-301v-555h-170v700h301z" />
    <glyph glyph-name="uni0491" unicode="&#x491;" horiz-adv-x="452" 
d="M279 550v134h155v-278h-212l-1 -406h-160l1 550h217z" />
    <glyph glyph-name="uni04C1" unicode="&#x4c1;" horiz-adv-x="1032" 
d="M516 743c-114 0 -167 58 -164 157h118c0 -35 15 -52 46 -52s46 17 46 52h119c1 -99 -51 -157 -165 -157zM1017 695l-188 -324l200 -366v-5h-174l-158 294h-96v-294h-170v294h-96l-158 -294h-174v5l200 366l-188 324v5h176l145 -261h95v261h170v-261h95l145 261h176v-5z
" />
    <glyph glyph-name="uni04C2" unicode="&#x4c2;" horiz-adv-x="874" 
d="M437 592c-114 0 -167 58 -164 157h118c0 -35 15 -52 46 -52s46 17 46 52h119c1 -99 -51 -157 -165 -157zM860 546l-147 -275l151 -267v-4h-170l-108 197h-68v-197h-160v197h-70l-108 -197h-170v4l151 267l-147 275v4h176l105 -209h62v208h160v-208h62l105 209h176v-4z
" />
    <glyph glyph-name="uni04F8" unicode="&#x4f8;" horiz-adv-x="954" 
d="M395 746c-38 0 -68 30 -68 68s30 68 68 68s68 -30 68 -68s-30 -68 -68 -68zM573 746c-38 0 -68 30 -68 68s30 68 68 68s68 -30 68 -68s-30 -68 -68 -68zM384 0h-308v700h170v-201h138c160 0 255 -90 255 -250c0 -149 -95 -249 -255 -249zM708 0v700h170v-700h-170z
M246 354v-209h116c67 0 107 46 107 104c0 68 -40 105 -107 105h-116z" />
    <glyph glyph-name="uni04F9" unicode="&#x4f9;" horiz-adv-x="823" 
d="M320 601c-38 0 -68 30 -68 68s30 68 68 68s68 -30 68 -68s-30 -68 -68 -68zM498 601c-38 0 -68 30 -68 68s30 68 68 68s68 -30 68 -68s-30 -68 -68 -68zM348 0h-287v550h160v-177h127c125 0 190 -70 190 -186s-65 -187 -190 -187zM762 0h-160v550h160v-550zM221 242v-109
h92c40 0 65 17 65 54c0 38 -25 55 -65 55h-92z" />
    <glyph glyph-name="uni05B0" unicode="&#x5b0;" 
d="M301 -167c-31 0 -55 24 -55 55s24 55 55 55s55 -24 55 -55s-24 -55 -55 -55zM301 -308c-31 0 -55 24 -55 55s24 55 55 55s55 -24 55 -55s-24 -55 -55 -55z" />
    <glyph glyph-name="uni05B1" unicode="&#x5b1;" 
d="M157 -167c-31 0 -55 24 -55 55s24 55 55 55s55 -24 55 -55s-24 -55 -55 -55zM301 -167c-31 0 -55 24 -55 55s24 55 55 55s55 -24 55 -55s-24 -55 -55 -55zM447 -167c-31 0 -55 24 -55 55s24 55 55 55s55 -24 55 -55s-24 -55 -55 -55zM229 -287c-31 0 -55 24 -55 55
s24 55 55 55s55 -24 55 -55s-24 -55 -55 -55zM447 -308c-31 0 -55 24 -55 55s24 55 55 55s55 -24 55 -55s-24 -55 -55 -55z" />
    <glyph glyph-name="uni05B2" unicode="&#x5b2;" 
d="M442 -167c-31 0 -55 24 -55 55s24 55 55 55s55 -24 55 -55s-24 -55 -55 -55zM109 -149v83h236v-83h-236zM442 -308c-31 0 -55 24 -55 55s24 55 55 55s55 -24 55 -55s-24 -55 -55 -55z" />
    <glyph glyph-name="uni05B3" unicode="&#x5b3;" 
d="M454 -167c-31 0 -55 24 -55 55s24 55 55 55s55 -24 55 -55s-24 -55 -55 -55zM192 -146h-91v76h259v-76h-91l3 -75v-62h-83v62zM454 -198c31 0 55 -24 55 -55s-24 -55 -55 -55s-55 24 -55 55s24 55 55 55z" />
    <glyph glyph-name="uni05B4" unicode="&#x5b4;" 
d="M301 -176c-32 0 -58 26 -58 58s26 58 58 58s58 -26 58 -58s-26 -58 -58 -58z" />
    <glyph glyph-name="uni05B5" unicode="&#x5b5;" 
d="M228 -167c-31 0 -55 24 -55 55s24 55 55 55s55 -24 55 -55s-24 -55 -55 -55zM374 -167c-31 0 -55 24 -55 55s24 55 55 55s55 -24 55 -55s-24 -55 -55 -55z" />
    <glyph glyph-name="uni05B6" unicode="&#x5b6;" 
d="M229 -167c-31 0 -55 24 -55 55s24 55 55 55s55 -24 55 -55s-24 -55 -55 -55zM373 -167c-31 0 -55 24 -55 55s24 55 55 55s55 -24 55 -55s-24 -55 -55 -55zM301 -287c-31 0 -55 24 -55 55s24 55 55 55s55 -24 55 -55s-24 -55 -55 -55z" />
    <glyph glyph-name="uni05B7" unicode="&#x5b7;" 
d="M183 -149v83h236v-83h-236z" />
    <glyph glyph-name="uni05B8" unicode="&#x5b8;" 
d="M172 -70h259v-76h-91l3 -75v-62h-83v62l3 75h-91v76z" />
    <glyph glyph-name="uni05B9" unicode="&#x5b9;" 
d="M298 651c-32 0 -58 26 -58 58s26 58 58 58s58 -26 58 -58s-26 -58 -58 -58z" />
    <glyph glyph-name="uni05BA" unicode="&#x5ba;" 
d="M301 651c-32 0 -58 26 -58 58s26 58 58 58s58 -26 58 -58s-26 -58 -58 -58z" />
    <glyph glyph-name="uni05BB" unicode="&#x5bb;" 
d="M300 -161c-29 0 -52 23 -52 52s23 52 52 52s52 -23 52 -52s-23 -52 -52 -52zM400 -249c-29 0 -52 23 -52 52s23 52 52 52s52 -23 52 -52s-23 -52 -52 -52zM500 -337c-29 0 -52 23 -52 52s23 52 52 52s52 -23 52 -52s-23 -52 -52 -52z" />
    <glyph glyph-name="uni05BC" unicode="&#x5bc;" 
d="M301 240c-31 0 -56 25 -56 56s25 56 56 56s56 -25 56 -56s-25 -56 -56 -56z" />
    <glyph glyph-name="uni05BE" unicode="&#x5be;" horiz-adv-x="415" 
d="M52 455v145h311v-145h-311z" />
    <glyph glyph-name="uni05BF" unicode="&#x5bf;" 
d="M178 651v79h246v-79h-246z" />
    <glyph glyph-name="uni05C1" unicode="&#x5c1;" 
d="M432 651c-32 0 -58 26 -58 58s26 58 58 58s58 -26 58 -58s-26 -58 -58 -58z" />
    <glyph glyph-name="uni05C2" unicode="&#x5c2;" 
d="M171 651c-32 0 -58 26 -58 58s26 58 58 58s58 -26 58 -58s-26 -58 -58 -58z" />
    <glyph glyph-name="uni05C3" unicode="&#x5c3;" horiz-adv-x="338" 
d="M169 393c-60 0 -108 48 -108 108s48 108 108 108s108 -48 108 -108s-48 -108 -108 -108zM169 -7c-60 0 -108 48 -108 108s48 108 108 108s108 -48 108 -108s-48 -108 -108 -108z" />
    <glyph glyph-name="uni05C6" unicode="&#x5c6;" horiz-adv-x="389" 
d="M349 145v-145h-287v426c0 119 48 174 174 174h97v-145h-44c-46 0 -57 -19 -57 -76v-234h117z" />
    <glyph glyph-name="uni05C7" unicode="&#x5c7;" 
d="M216 -66h186v-55h-65l2 -54v-45h-60v45l2 54h-65v55z" />
    <glyph glyph-name="uni05D0" unicode="&#x5d0;" horiz-adv-x="710" 
d="M514 211l150 -204v-7h-188l-202 274c-47 -41 -68 -122 -63 -274h-170c-5 225 45 333 149 389l-150 204v7h188l202 -274c47 41 68 122 63 274h170c5 -225 -45 -333 -149 -389z" />
    <glyph glyph-name="uni05D1" unicode="&#x5d1;" horiz-adv-x="648" 
d="M551 310v-165h68v-145h-568v145h330v153c0 105 -49 169 -137 169c-59 0 -113 -24 -156 -48l-56 126c76 45 160 67 240 67c194 0 279 -104 279 -302z" />
    <glyph glyph-name="uni05D2" unicode="&#x5d2;" horiz-adv-x="426" 
d="M78 600h87c135 0 199 -58 199 -180v-420h-129l-26 96l-5 1c-33 -75 -84 -97 -139 -97h-45v160h45c91 0 135 44 135 126v98c0 50 -18 71 -68 71h-54v145z" />
    <glyph glyph-name="uni05D3" unicode="&#x5d3;" horiz-adv-x="635" 
d="M36 455v145h557v-145c-87 0 -121 -50 -121 -147v-308h-170v302c0 73 22 121 59 153h-325z" />
    <glyph glyph-name="uni05D4" unicode="&#x5d4;" horiz-adv-x="693" 
d="M64 455v145h245c224 0 323 -98 323 -324v-276h-170v276c0 128 -43 179 -153 179h-245zM69 0v311l170 22v-333h-170z" />
    <glyph glyph-name="uni05D5" unicode="&#x5d5;" horiz-adv-x="304" 
d="M67 600h170v-600h-170v600z" />
    <glyph glyph-name="uni05D6" unicode="&#x5d6;" horiz-adv-x="440" 
d="M410 600v-145c-165 0 -198 -114 -66 -455h-181c-96 267 -75 405 29 455h-150v145h368z" />
    <glyph glyph-name="uni05D7" unicode="&#x5d7;" horiz-adv-x="711" 
d="M67 600h263c219 0 320 -89 320 -296v-304h-170v304c0 101 -45 151 -150 151h-93v-455h-170v600z" />
    <glyph glyph-name="uni05D8" unicode="&#x5d8;" horiz-adv-x="705" 
d="M431 608c135 0 235 -84 235 -289c0 -209 -109 -329 -306 -329s-318 120 -318 329v281h170v-281c0 -118 54 -184 148 -184s140 66 140 184c0 84 -25 144 -90 144c-38 0 -53 -8 -79 -19l-42 127c38 21 84 37 142 37z" />
    <glyph glyph-name="uni05D9" unicode="&#x5d9;" horiz-adv-x="292" 
d="M61 235v365h170v-339z" />
    <glyph glyph-name="uni05DA" unicode="&#x5da;" horiz-adv-x="570" 
d="M36 455v145h177c219 0 296 -85 296 -317v-433h-170v433c0 126 -37 172 -138 172h-165z" />
    <glyph glyph-name="uni05DB" unicode="&#x5db;" horiz-adv-x="575" 
d="M235 610c187 0 305 -120 305 -310s-118 -310 -305 -310c-78 0 -145 21 -205 61l53 118c37 -19 81 -39 130 -39c100 0 157 68 157 170s-57 170 -157 170c-49 0 -93 -20 -129 -40l-54 119c60 40 127 61 205 61z" />
    <glyph glyph-name="uni05DC" unicode="&#x5dc;" horiz-adv-x="588" 
d="M208 700v-100h359v-15l-208 -585h-181v6l164 449h-304v245h170z" />
    <glyph glyph-name="uni05DD" unicode="&#x5dd;" horiz-adv-x="717" 
d="M67 600h292c206 0 297 -74 297 -269v-331h-589v600zM237 455v-310h249v172c0 102 -42 138 -129 138h-120z" />
    <glyph glyph-name="uni05DE" unicode="&#x5de;" horiz-adv-x="762" 
d="M439 609c171 0 284 -126 284 -306c0 -253 -157 -368 -384 -280l37 138c127 -56 187 -2 187 142c0 102 -51 156 -116 156c-61 0 -110 -43 -150 -192l-72 -267h-168l77 273l-112 327h167l38 -127c46 91 125 136 212 136z" />
    <glyph glyph-name="uni05DF" unicode="&#x5df;" horiz-adv-x="304" 
d="M67 600h170v-750h-170v750z" />
    <glyph glyph-name="uni05E0" unicode="&#x5e0;" horiz-adv-x="389" 
d="M327 0h-287v145h117v234c0 57 -11 76 -57 76h-44v145h97c126 0 174 -55 174 -174v-426z" />
    <glyph glyph-name="uni05E1" unicode="&#x5e1;" horiz-adv-x="685" 
d="M42 600h302c198 0 302 -99 302 -295c0 -199 -114 -317 -302 -317c-190 0 -302 118 -302 317v295zM344 133c85 0 132 64 132 172c0 99 -38 150 -132 150h-132v-150c0 -108 45 -172 132 -172z" />
    <glyph glyph-name="uni05E2" unicode="&#x5e2;" horiz-adv-x="655" 
d="M428 385v215h170v-215c0 -251 -109 -410 -545 -429l-12 139c49 6 93 11 132 17l-136 488h176l120 -444c68 38 95 102 95 229z" />
    <glyph glyph-name="uni05E3" unicode="&#x5e3;" horiz-adv-x="641" 
d="M288 610c196 0 294 -104 294 -294v-466h-165v465c0 97 -39 150 -125 150c-53 0 -98 -47 -98 -103c0 -59 34 -97 98 -105l-25 -141c-150 12 -244 116 -244 247c0 145 107 247 265 247z" />
    <glyph glyph-name="uni05E4" unicode="&#x5e4;" horiz-adv-x="658" 
d="M308 611c204 0 315 -122 315 -306c0 -189 -112 -316 -335 -316c-75 0 -155 11 -227 42l42 132c56 -22 119 -32 182 -32c107 0 168 71 168 174c0 97 -56 164 -145 164c-72 0 -108 -29 -108 -73c0 -43 36 -69 103 -65l-5 -131c-166 -11 -268 78 -268 196
c0 147 122 215 278 215z" />
    <glyph glyph-name="uni05E5" unicode="&#x5e5;" horiz-adv-x="650" 
d="M430 600h170c9 -296 -65 -412 -221 -461l116 -285v-4h-181l-304 746v4h181l133 -327c85 40 112 122 106 327z" />
    <glyph glyph-name="uni05E6" unicode="&#x5e6;" horiz-adv-x="641" 
d="M447 233l151 -221v-12h-539v145h260l-311 450v5h187l171 -249c48 35 68 108 63 249h164c6 -208 -38 -314 -146 -367z" />
    <glyph glyph-name="uni05E7" unicode="&#x5e7;" horiz-adv-x="707" 
d="M64 455v145h578v-341c0 -213 -109 -266 -225 -266c-45 0 -81 5 -120 17l19 140c25 -7 50 -12 77 -12c57 0 85 21 85 137v180h-414zM69 328l164 20v-498h-164v478z" />
    <glyph glyph-name="uni05E8" unicode="&#x5e8;" horiz-adv-x="601" 
d="M538 310v-310h-164v303c0 106 -52 167 -144 167c-61 0 -115 -24 -162 -48l-56 121c88 49 170 65 247 65c158 0 279 -90 279 -298z" />
    <glyph glyph-name="uni05E9" unicode="&#x5e9;" horiz-adv-x="826" 
d="M614 342v258h170v-253c0 -233 -133 -360 -371 -360s-371 127 -371 360v253h170v-258c0 -137 72 -210 201 -210s201 73 201 210zM328 600h170v-330l-170 -34v364z" />
    <glyph glyph-name="uni05EA" unicode="&#x5ea;" horiz-adv-x="763" 
d="M74 600h310c228 0 318 -82 318 -298v-302h-170v302c0 105 -40 153 -150 153h-70v-299c0 -113 -70 -162 -154 -162c-43 0 -108 8 -138 19l22 134c15 -4 34 -9 60 -9c32 0 42 17 42 68v249h-70v145z" />
    <glyph glyph-name="uni05EF" unicode="&#x5ef;" horiz-adv-x="780" 
d="M305 360v365h170v-339zM61 235v365h170v-339zM549 235v365h170v-339z" />
    <glyph glyph-name="uni05F0" unicode="&#x5f0;" horiz-adv-x="608" 
d="M67 600h170v-600h-170v600zM371 600h170v-600h-170v600z" />
    <glyph glyph-name="uni05F1" unicode="&#x5f1;" horiz-adv-x="604" 
d="M61 235v365h170v-339zM367 600h170v-600h-170v600z" />
    <glyph glyph-name="uni05F2" unicode="&#x5f2;" horiz-adv-x="579" 
d="M61 235v365h170v-339zM348 235v365h170v-339z" />
    <glyph glyph-name="uni05F3" unicode="&#x5f3;" horiz-adv-x="274" 
d="M38 405l47 295h167l-84 -295h-130z" />
    <glyph glyph-name="uni05F4" unicode="&#x5f4;" horiz-adv-x="474" 
d="M38 405l46 295h164l-82 -295h-128zM242 405l46 295h164l-82 -295h-128z" />
    <glyph glyph-name="uni0E3F" unicode="&#xe3f;" horiz-adv-x="643" 
d="M530 366c53 -26 83 -86 83 -156c0 -126 -78 -193 -211 -193h-32v-77h-123v77h-171v667h171v76h123v-76h18c128 0 203 -71 203 -190c0 -59 -24 -104 -61 -128zM364 553h-131v-131h131c53 0 76 22 76 65s-23 66 -76 66zM233 148h147c55 0 80 27 80 78c0 50 -25 76 -80 76
h-147v-154z" />
    <glyph glyph-name="uni1E3E" unicode="&#x1e3e;" horiz-adv-x="920" 
d="M382 750l98 150h183l-145 -150h-136zM460 354l236 346h148v-700h-164v400l-200 -286h-40l-200 286v-400h-164v700h148z" />
    <glyph glyph-name="uni1E3F" unicode="&#x1e3f;" horiz-adv-x="934" 
d="M528 750h183l-145 -150h-136zM690 560c114 0 191 -73 191 -203v-357h-160v336c0 54 -34 91 -83 91c-52 0 -87 -37 -87 -91v-336h-160v336c0 54 -34 91 -83 91c-52 0 -87 -37 -87 -91v-336h-160v550h160v-52c34 40 83 62 145 62c73 0 123 -31 151 -85c35 54 94 85 173 85z
" />
    <glyph glyph-name="Wgrave" unicode="&#x1e80;" horiz-adv-x="1022" 
d="M314 900h183l98 -150h-136zM831 700h183v-10l-241 -690h-119l-143 419l-143 -419h-119l-241 690v10h183l126 -388l125 388h138l125 -388z" />
    <glyph glyph-name="wgrave" unicode="&#x1e81;" horiz-adv-x="826" 
d="M216 750h183l98 -150h-136zM558 263l92 287h167v-5l-197 -545h-95l-112 274l-113 -274h-94l-197 545v5h167l92 -287l109 287h72z" />
    <glyph glyph-name="Wacute" unicode="&#x1e82;" horiz-adv-x="1022" 
d="M433 750l98 150h183l-145 -150h-136zM831 700h183v-10l-241 -690h-119l-143 419l-143 -419h-119l-241 690v10h183l126 -388l125 388h138l125 -388z" />
    <glyph glyph-name="wacute" unicode="&#x1e83;" horiz-adv-x="826" 
d="M335 600l98 150h183l-145 -150h-136zM558 263l92 287h167v-5l-197 -545h-95l-112 274l-113 -274h-94l-197 545v5h167l92 -287l109 287h72z" />
    <glyph glyph-name="Wdieresis" unicode="&#x1e84;" horiz-adv-x="1022" 
d="M422 746c-38 0 -68 30 -68 68s30 68 68 68s68 -30 68 -68s-30 -68 -68 -68zM600 746c-38 0 -68 30 -68 68s30 68 68 68s68 -30 68 -68s-30 -68 -68 -68zM831 700h183v-10l-241 -690h-119l-143 419l-143 -419h-119l-241 690v10h183l126 -388l125 388h138l125 -388z" />
    <glyph glyph-name="wdieresis" unicode="&#x1e85;" horiz-adv-x="826" 
d="M324 596c-38 0 -68 30 -68 68s30 68 68 68s68 -30 68 -68s-30 -68 -68 -68zM502 596c-38 0 -68 30 -68 68s30 68 68 68s68 -30 68 -68s-30 -68 -68 -68zM558 263l92 287h167v-5l-197 -545h-95l-112 274l-113 -274h-94l-197 545v5h167l92 -287l109 287h72z" />
    <glyph glyph-name="uni1E9E" unicode="&#x1e9e;" horiz-adv-x="691" 
d="M643 687l-162 -266c108 -16 185 -96 185 -218c0 -119 -96 -209 -234 -209c-62 0 -110 7 -137 20l33 133c16 -4 38 -8 70 -8c66 0 99 34 99 85c0 50 -36 84 -118 84h-61v120l74 126h-53c-53 0 -98 -17 -98 -103v-451h-170v442c0 182 88 258 264 258h308v-13z" />
    <glyph glyph-name="uni1EBC" unicode="&#x1ebc;" horiz-adv-x="642" 
d="M234 762l-52 58c29 37 67 68 113 68c61 0 64 -57 100 -57c24 0 40 15 55 33l52 -58c-25 -39 -68 -67 -110 -67c-63 0 -62 57 -101 57c-24 0 -43 -15 -57 -34zM577 700v-145h-331v-129h271v-139h-271v-142h331v-145h-501v700h501z" />
    <glyph glyph-name="uni1EBD" unicode="&#x1ebd;" horiz-adv-x="607" 
d="M257 656c-24 0 -43 -15 -57 -34l-52 58c29 37 67 68 113 68c61 0 64 -57 100 -57c24 0 40 15 55 33l52 -58c-25 -39 -68 -67 -110 -67c-63 0 -62 57 -101 57zM306 560c186 0 292 -170 269 -346h-389c20 -51 64 -82 119 -82c42 0 79 20 103 53l122 -84
c-51 -70 -126 -111 -224 -111c-160 0 -277 123 -277 285c0 163 117 285 277 285zM305 416c-60 0 -106 -35 -122 -92h239c-13 50 -52 92 -117 92z" />
    <glyph glyph-name="Ygrave" unicode="&#x1ef2;" horiz-adv-x="664" 
d="M135 900h183l98 -150h-136zM331 449l140 251h191v-6l-246 -410v-284h-170v284l-244 410v6h191z" />
    <glyph glyph-name="ygrave" unicode="&#x1ef3;" horiz-adv-x="544" 
d="M259 750l98 -150h-136l-145 150h183zM275 239l95 311h166v-6l-200 -607c-60 -181 -152 -207 -297 -161l36 129c61 -17 97 -6 114 51l13 44l-196 544v6h171z" />
    <glyph glyph-name="uni1EF8" unicode="&#x1ef8;" horiz-adv-x="664" 
d="M226 762l-52 58c29 37 67 68 113 68c61 0 64 -57 100 -57c24 0 40 15 55 33l52 -58c-25 -39 -68 -67 -110 -67c-63 0 -62 57 -101 57c-24 0 -43 -15 -57 -34zM331 449l140 251h191v-6l-246 -410v-284h-170v284l-244 410v6h191z" />
    <glyph glyph-name="uni1EF9" unicode="&#x1ef9;" horiz-adv-x="544" 
d="M224 646c-24 0 -43 -15 -57 -34l-52 58c29 37 67 68 113 68c61 0 64 -57 100 -57c24 0 40 15 55 33l52 -58c-25 -39 -68 -67 -110 -67c-63 0 -62 57 -101 57zM275 239l95 311h166v-6l-200 -607c-60 -181 -152 -207 -297 -161l36 129c61 -17 97 -6 114 51l13 44l-196 544
v6h171z" />
    <glyph glyph-name="uni200B" unicode="&#x200b;" 
 />
    <glyph glyph-name="endash" unicode="&#x2013;" horiz-adv-x="725" 
d="M666 230h-607v140h607v-140z" />
    <glyph glyph-name="emdash" unicode="&#x2014;" horiz-adv-x="830" 
d="M789 356v-112h-748v112h748z" />
    <glyph glyph-name="quoteleft" unicode="&#x2018;" horiz-adv-x="283" 
d="M244 712l-47 -295h-167l84 295h130z" />
    <glyph glyph-name="quoteright" unicode="&#x2019;" horiz-adv-x="274" 
d="M38 405l47 295h167l-84 -295h-130z" />
    <glyph glyph-name="quotesinglbase" unicode="&#x201a;" horiz-adv-x="264" 
d="M18 -137l47 283h164l-85 -283h-126z" />
    <glyph glyph-name="quotedblleft" unicode="&#x201c;" horiz-adv-x="483" 
d="M240 712l-46 -295h-164l82 295h128zM444 712l-46 -295h-164l82 295h128z" />
    <glyph glyph-name="quotedblright" unicode="&#x201d;" horiz-adv-x="474" 
d="M38 405l46 295h164l-82 -295h-128zM242 405l46 295h164l-82 -295h-128z" />
    <glyph glyph-name="quotedblbase" unicode="&#x201e;" horiz-adv-x="467" 
d="M18 -137l47 283h164l-85 -283h-126zM221 -137l47 283h164l-85 -283h-126z" />
    <glyph glyph-name="dagger" unicode="&#x2020;" horiz-adv-x="725" 
d="M438 750v-233h228v-140h-607v140h219v233h160zM438 -200h-160v361h160v-361z" />
    <glyph glyph-name="daggerdbl" unicode="&#x2021;" horiz-adv-x="725" 
d="M438 750v-233h228v-140h-607v140h219v233h160zM278 21h-219v140h607v-140h-228v-221h-160v221z" />
    <glyph glyph-name="bullet" unicode="&#x2022;" horiz-adv-x="521" 
d="M261 90c-118 0 -211 92 -211 210c0 117 93 209 211 209s210 -92 210 -209c0 -118 -92 -210 -210 -210z" />
    <glyph glyph-name="ellipsis" unicode="&#x2026;" horiz-adv-x="818" 
d="M149 -7c-60 0 -108 48 -108 108s48 108 108 108s108 -48 108 -108s-48 -108 -108 -108zM409 -7c-60 0 -108 48 -108 108s48 108 108 108s108 -48 108 -108s-48 -108 -108 -108zM669 -7c-60 0 -108 48 -108 108s48 108 108 108s108 -48 108 -108s-48 -108 -108 -108z" />
    <glyph glyph-name="perthousand" unicode="&#x2030;" horiz-adv-x="1293" 
d="M237 291c-118 0 -191 84 -191 208s73 208 191 208c116 0 188 -84 188 -208s-72 -208 -188 -208zM469 442v13l167 245h161v-5l-187 -253h-141zM237 394c46 0 70 42 70 105c0 64 -24 106 -70 106c-47 0 -72 -42 -72 -106c0 -63 25 -105 72 -105zM660 -8
c-118 0 -191 84 -191 208s73 208 191 208c116 0 188 -84 188 -208s-72 -208 -188 -208zM1064 -8c-118 0 -191 84 -191 208s73 208 191 208c116 0 188 -84 188 -208s-72 -208 -188 -208zM660 95c46 0 70 42 70 105c0 64 -24 106 -70 106c-47 0 -72 -42 -72 -106
c0 -63 25 -105 72 -105zM1064 95c46 0 70 42 70 105c0 64 -24 106 -70 106c-47 0 -72 -42 -72 -106c0 -63 25 -105 72 -105zM433 258v-13l-167 -245h-161v5l187 253h141z" />
    <glyph glyph-name="uni2031" unicode="&#x2031;" horiz-adv-x="1697" 
d="M237 291c-118 0 -191 84 -191 208s73 208 191 208c116 0 188 -84 188 -208s-72 -208 -188 -208zM469 442v13l167 245h161v-5l-187 -253h-141zM237 394c46 0 70 42 70 105c0 64 -24 106 -70 106c-47 0 -72 -42 -72 -106c0 -63 25 -105 72 -105zM660 -8
c-118 0 -191 84 -191 208s73 208 191 208c116 0 188 -84 188 -208s-72 -208 -188 -208zM1064 -8c-118 0 -191 84 -191 208s73 208 191 208c116 0 188 -84 188 -208s-72 -208 -188 -208zM1468 -8c-118 0 -191 84 -191 208s73 208 191 208c116 0 188 -84 188 -208
s-72 -208 -188 -208zM660 95c46 0 70 42 70 105c0 64 -24 106 -70 106c-47 0 -72 -42 -72 -106c0 -63 25 -105 72 -105zM1064 95c46 0 70 42 70 105c0 64 -24 106 -70 106c-47 0 -72 -42 -72 -106c0 -63 25 -105 72 -105zM1468 95c46 0 70 42 70 105c0 64 -24 106 -70 106
c-47 0 -72 -42 -72 -106c0 -63 25 -105 72 -105zM433 258v-13l-167 -245h-161v5l187 253h141z" />
    <glyph glyph-name="guilsinglleft" unicode="&#x2039;" horiz-adv-x="380" 
d="M13 272v6l265 229l61 -61l-121 -171l121 -171l-61 -61z" />
    <glyph glyph-name="guilsinglright" unicode="&#x203a;" horiz-adv-x="380" 
d="M102 507l265 -229v-6l-265 -229l-61 61l121 171l-121 171z" />
    <glyph glyph-name="uni203D" unicode="&#x203d;" horiz-adv-x="564" 
d="M374 780v-78c88 -21 138 -79 138 -170c0 -169 -179 -198 -176 -295h-154c-6 168 162 179 162 276c0 35 -23 53 -69 53c-41 0 -73 -29 -92 -97l-151 37c18 103 81 170 172 194v80h170zM259 190c55 0 98 -44 98 -98c0 -55 -43 -98 -98 -98c-54 0 -98 43 -98 98
c0 54 44 98 98 98z" />
    <glyph glyph-name="fraction" unicode="&#x2044;" horiz-adv-x="106" 
d="M71 463v13l170 224h158v-5l-187 -232h-141zM35 237v-13l-170 -224h-158v5l187 232h141z" />
    <glyph glyph-name="uni2051" unicode="&#x2051;" horiz-adv-x="496" 
d="M195 376l-84 61l60 75l-93 26l32 98l92 -34l-5 97h103l-4 -97l90 34l32 -98l-93 -26l60 -75l-83 -61l-53 81zM296 213l90 34l32 -98l-93 -26l60 -75l-83 -61l-53 81l-54 -81l-84 61l60 75l-93 26l32 98l92 -34l-5 97h103z" />
    <glyph glyph-name="uni2055" unicode="&#x2055;" horiz-adv-x="699" 
d="M615 311c51 -28 68 -93 39 -142c-28 -52 -93 -69 -142 -40c-31 17 -49 45 -52 77c-5 31 -8 50 -22 58c-9 4 -19 4 -35 -6c-18 -11 -27 -20 -27 -32c0 -14 14 -28 39 -47c23 -19 39 -48 39 -83c0 -58 -46 -104 -104 -104s-105 46 -105 104c0 35 16 64 40 83
c25 19 39 33 39 47c0 11 -8 18 -21 27c-19 13 -32 15 -42 9c-12 -7 -17 -25 -21 -56c-4 -32 -22 -60 -52 -77c-50 -29 -114 -12 -142 39c-30 50 -13 115 38 143c28 17 62 18 91 7c29 -13 48 -18 60 -12c10 6 14 19 15 40c1 18 -5 29 -15 35c-12 7 -31 1 -60 -11
s-63 -11 -91 6c-51 29 -68 93 -38 144c28 50 92 67 142 38c30 -17 48 -45 52 -77c4 -30 9 -48 21 -56c10 -6 25 -3 43 9c15 10 20 17 20 27c0 15 -14 28 -39 47c-24 20 -40 49 -40 84c0 57 47 104 105 104s104 -47 104 -104c0 -35 -16 -64 -39 -84c-25 -19 -39 -32 -39 -47
c0 -12 12 -20 30 -33c12 -9 23 -10 32 -4c14 8 17 27 22 57c3 32 21 60 52 77c49 29 114 12 142 -39c29 -50 12 -114 -39 -143c-28 -17 -62 -18 -91 -6c-28 12 -46 17 -60 10c-9 -6 -13 -17 -13 -36s4 -31 13 -36c14 -7 32 -3 60 10c29 11 63 10 91 -7z" />
    <glyph glyph-name="uni20A9" unicode="&#x20a9;" horiz-adv-x="1101" 
d="M957 447h116v-81h-144l-128 -366h-119l-125 366h-36l-125 -366h-119l-128 366h-121v81h93l-85 243v10h183l82 -253h87l82 253h138l82 -253h87l82 253h183v-10zM327 366l18 -54l17 54h-35zM716 366l17 -54l18 54h-35z" />
    <glyph glyph-name="uni20AA" unicode="&#x20aa;" horiz-adv-x="910" 
d="M214 550h409v-371h-145v241h-195c-34 0 -47 -16 -47 -55v-365h-155v404c0 98 44 146 133 146zM696 0h-409v371h145v-241h195c34 0 47 16 47 55v365h155v-404c0 -98 -44 -146 -133 -146z" />
    <glyph glyph-name="Euro" unicode="&#x20ac;" horiz-adv-x="625" 
d="M541 171l72 -118c-52 -34 -115 -56 -184 -56c-156 0 -284 101 -330 241h-89l30 96h42v16v16h-66l30 96h53c45 141 174 242 330 242c57 0 116 -12 164 -34l-60 -128c-32 14 -50 17 -101 17c-70 0 -125 -37 -155 -97h219l-45 -96h-198v-16v-16h182l-44 -96h-114
c30 -60 85 -96 155 -96c57 0 76 13 109 29z" />
    <glyph glyph-name="uni20B9" unicode="&#x20b9;" horiz-adv-x="637" 
d="M563 700v-150h-108c7 -12 13 -25 17 -40h91v-80h-88c-12 -109 -76 -166 -176 -178l244 -246v-6h-226l-242 249v139h132c51 0 77 12 88 42h-220v80h219c-11 28 -37 40 -87 40h-132v150h488z" />
    <glyph glyph-name="uni20BA" unicode="&#x20ba;" horiz-adv-x="730" 
d="M527 358h165c-8 -230 -131 -358 -354 -358h-176v254l-99 -29v100l99 29v50l-99 -29v100l99 29v196h170v-147l146 42v-100l-146 -42v-50l146 42v-100l-146 -42v-155h18c126 0 172 75 177 210z" />
    <glyph glyph-name="uni20BD" unicode="&#x20bd;" horiz-adv-x="710" 
d="M436 254h-123v-36h259v-130h-259v-88h-170v88h-75v130h75v36h-75v145h75v301h293c146 0 238 -87 238 -223s-92 -223 -238 -223zM421 555h-108v-156h108c51 0 83 30 83 78s-32 78 -83 78z" />
    <glyph glyph-name="uni20BF" unicode="&#x20bf;" horiz-adv-x="643" 
d="M613 210c0 -118 -68 -184 -186 -192v-98h-107v97h-36v-97h-106v97h-102v667h102v96h106v-96h36v96h107v-98c104 -14 164 -82 164 -188c0 -59 -24 -104 -61 -128c53 -26 83 -86 83 -156zM364 553h-131v-131h131c53 0 76 22 76 65s-23 66 -76 66zM233 148h147
c55 0 80 27 80 78c0 50 -25 76 -80 76h-147v-154z" />
    <glyph glyph-name="uni2113" unicode="&#x2113;" horiz-adv-x="452" 
d="M369 87l28 -50c-123 -101 -300 -37 -300 97v67c-15 -8 -31 -14 -46 -20l-23 63c23 8 46 18 69 30v248c0 131 57 185 151 185c98 0 134 -35 134 -130c0 -102 -62 -203 -145 -280v-153c0 -89 77 -100 132 -57zM277 624c-31 0 -40 -23 -40 -77v-170c48 50 79 110 79 175
c0 57 -11 72 -39 72z" />
    <glyph glyph-name="uni2116" unicode="&#x2116;" horiz-adv-x="1218" 
d="M709 700v-700h-123l-343 400v-400h-167v700h123l343 -400v400h167zM964 233c-115 0 -202 87 -202 204c0 114 87 201 202 201s203 -87 203 -201c0 -117 -88 -204 -203 -204zM964 377c34 0 59 25 59 60c0 32 -25 57 -59 57s-59 -25 -59 -57c0 -35 25 -60 59 -60zM787 77
v119h355v-119h-355z" />
    <glyph glyph-name="trademark" unicode="&#x2122;" horiz-adv-x="663" 
d="M30 700h234v-100h-65v-166h-105v166h-64v100zM475 478h-32l-43 93v-137h-105v266h124l40 -73l39 73h124v-266h-105v137z" />
    <glyph glyph-name="estimated" unicode="&#x212e;" horiz-adv-x="786" 
d="M393 708c223 0 357 -138 357 -391h-574v-178c54 -58 136 -91 238 -91c124 0 204 57 255 126l43 -32c-61 -103 -165 -152 -298 -152c-237 0 -378 141 -378 357c0 217 141 361 357 361zM393 647c-89 0 -165 -33 -217 -89v-180h435v180c-53 56 -128 89 -218 89z" />
    <glyph glyph-name="uni2135" unicode="&#x2135;" horiz-adv-x="725" 
d="M678 489l-315 -182l-316 182l316 185zM316 380l66 -2l4 5c-6 17 -13 46 -13 62c86 -1 147 32 156 36l14 -10l20 8l1 6l-43 24c-11 6 -8 15 -2 24l-34 15l-28 -18l21 -19c-25 -19 -57 -43 -103 -43c5 49 33 113 39 127c-21 11 -65 5 -71 3c0 -8 5 -39 5 -58
c-30 10 -69 9 -96 -12c-13 -10 -28 -31 -37 -45l-2 -1l-17 8c-11 5 -15 7 -16 7l-30 -10l14 -16c7 0 15 4 27 -3l43 -25c10 2 24 7 28 10c10 16 16 50 38 64c11 7 24 14 45 5c-8 -29 -73 -141 -29 -142zM353 289v-362l-315 183l-1 362zM687 110l-314 -183v363l315 182z
M428 50l-6 -34l22 7c1 4 4 13 14 19l43 27c3 9 8 24 8 29c-12 16 -31 42 -36 65c-3 13 -2 29 18 44c22 -23 75 -70 109 -99l33 56v6c-17 2 -46 10 -61 20c44 74 48 142 48 152l14 8l5 20l-4 3l-42 -23c-12 -6 -20 0 -23 10l-30 -22v-31l28 7c3 -32 8 -69 -15 -111
c-38 29 -81 85 -88 98c-15 -9 -61 -49 -41 -58c15 -7 40 -19 53 -27c-26 -21 -38 -53 -38 -88c0 -17 11 -40 19 -53l-1 -6l-15 -9c-9 -5 -14 -9 -14 -10zM266 16l34 17l-1 7c-18 23 -48 64 -64 92c47 20 51 84 51 92l14 -9l6 15l-4 7l-43 24c-12 7 -22 25 -25 39l-29 11v-31
l28 -24c2 -32 7 -80 -15 -90c-41 71 -82 175 -92 196c-15 8 -48 0 -40 -12c15 -22 41 -61 55 -85c-26 9 -45 -5 -40 -43c2 -15 12 -52 20 -75l-1 -3l-16 8c-9 5 -13 7 -14 7l-7 -26l22 -18c0 4 7 9 16 3l45 -27c3 7 7 18 7 21c-11 31 -31 77 -37 105c-4 19 -2 32 18 22
c22 -46 77 -154 112 -223z" />
    <glyph glyph-name="uni2136" unicode="&#x2136;" horiz-adv-x="1000" 
d="M954 525c21 -9 26 -20 23 -34c-4 -19 -16 -25 -36 -18c-191 67 -404 74 -568 60c-2 -24 -3 -51 7 -76c5 -13 -6 -27 -22 -32c-14 -4 -26 4 -30 21c-6 27 -7 51 -7 76c-39 -55 -62 -87 -79 -97c-14 -8 -26 -13 -39 -3c-11 8 -11 20 -2 36c8 15 28 34 63 68
c-56 -6 -153 -21 -166 -23c-15 -2 -27 4 -31 19c-5 18 4 30 23 33c28 4 177 36 225 50c22 39 55 124 65 145c6 13 21 19 33 14s17 -19 15 -31c-6 -37 -24 -70 -41 -103c74 29 113 51 117 54c11 8 25 6 33 -6s5 -23 -6 -34c-3 -3 -33 -21 -116 -55c172 9 382 3 539 -64z
M687 467c41 -6 73 -33 72 -67c-4 -144 -335 -449 -436 -492c-49 -21 -81 -6 -99 26c-36 64 18 196 110 293c71 75 172 129 209 85c41 -48 -61 -156 -73 -167c-14 -13 -34 -14 -46 -3c-14 13 -14 30 5 49c27 27 51 56 62 77c-104 -38 -202 -174 -217 -268
c-4 -24 2 -52 34 -35c125 66 330 271 381 392c13 31 14 52 -29 56c-121 11 -261 -64 -335 -128c-15 -13 -37 -11 -46 5c-8 14 -3 33 11 44c34 26 218 159 397 133z" />
    <glyph glyph-name="uni2137" unicode="&#x2137;" horiz-adv-x="757" 
d="M481 515c147 -82 199 -184 199 -291c0 -129 -114 -262 -297 -262s-296 133 -296 262c0 107 51 209 199 291c-81 24 -142 41 -193 50l19 75c104 -22 168 -42 271 -82c103 40 168 60 271 82l20 -75c-51 -9 -113 -26 -193 -50zM383 37c128 0 221 88 221 190
c0 108 -76 195 -221 254c-145 -59 -220 -146 -220 -254c0 -102 93 -190 220 -190zM383 305c-30 0 -57 27 -57 58c0 30 27 56 57 56s57 -26 57 -56c0 -31 -27 -58 -57 -58zM215 250l30 65c107 -53 170 -53 277 0l30 -65c-35 -18 -67 -31 -99 -38l57 -73l-62 -45l-65 87
l-65 -87l-61 45l56 73c-31 8 -63 21 -98 38z" />
    <glyph glyph-name="uni2150" unicode="&#x2150;" horiz-adv-x="800" 
d="M192 396v142l-57 -51l-67 72l162 141h81v-304h76v-96h-292v96h97zM763 700v-5l-187 -232h-141v13l170 224h158zM465 304v96h319v-16l-158 -384h-124l125 304h-162zM71 0v5l187 232h141v-13l-170 -224h-158z" />
    <glyph glyph-name="uni2151" unicode="&#x2151;" horiz-adv-x="824" 
d="M197 396v142l-57 -51l-67 72l162 141h81v-304h76v-96h-292v96h97zM760 700v-5l-187 -232h-141v13l170 224h158zM631 408c108 0 177 -62 177 -149c0 -48 -17 -88 -49 -126l-112 -133h-146v3l115 126c-8 -1 -16 -1 -24 -1c-71 0 -137 45 -137 131c0 87 68 149 176 149z
M631 204c35 0 61 23 61 54s-26 54 -61 54c-34 0 -60 -23 -60 -54s26 -54 60 -54zM68 0v5l187 232h141v-13l-170 -224h-158z" />
    <glyph glyph-name="uni2152" unicode="&#x2152;" horiz-adv-x="1165" 
d="M194 396v142l-57 -51l-67 72l162 141h81v-304h76v-96h-292v96h97zM760 700v-5l-187 -232h-141v13l170 224h158zM960 408c116 0 188 -84 188 -208s-72 -208 -188 -208c-118 0 -191 84 -191 208s73 208 191 208zM607 400h81v-304h76v-96h-292v96h97v142l-57 -51l-67 72z
M960 95c46 0 70 42 70 105c0 64 -24 106 -70 106c-47 0 -72 -42 -72 -106c0 -63 25 -105 72 -105zM68 0v5l187 232h141v-13l-170 -224h-158z" />
    <glyph glyph-name="uni2153" unicode="&#x2153;" horiz-adv-x="837" 
d="M192 396v142l-57 -51l-67 72l162 141h81v-304h76v-96h-292v96h97zM763 700v-5l-187 -232h-141v13l170 224h158zM732 214c42 -12 72 -49 72 -100c0 -71 -57 -121 -182 -121c-89 0 -151 40 -172 73l80 60c22 -23 62 -36 100 -36c36 0 61 15 61 42s-27 37 -82 37h-46v82h22
c63 0 86 13 86 31c0 21 -16 29 -51 29c-41 0 -73 -17 -94 -43l-69 60c28 42 76 80 162 80c113 0 166 -47 166 -110c0 -40 -22 -68 -53 -84zM71 0v5l187 232h141v-13l-170 -224h-158z" />
    <glyph glyph-name="uni2154" unicode="&#x2154;" horiz-adv-x="881" 
d="M74 298v19l130 133c71 72 87 94 87 119c0 20 -15 36 -47 36c-34 0 -58 -22 -64 -65l-115 20c16 105 91 146 179 146c102 0 166 -58 166 -131c0 -42 -16 -91 -94 -164l-17 -16h121v-97h-346zM802 700v-5l-187 -232h-141v13l170 224h158zM776 214c42 -12 72 -49 72 -100
c0 -71 -57 -121 -182 -121c-89 0 -151 40 -172 73l80 60c22 -23 62 -36 100 -36c36 0 61 15 61 42s-27 37 -82 37h-46v82h22c63 0 86 13 86 31c0 21 -16 29 -51 29c-41 0 -73 -17 -94 -43l-69 60c28 42 76 80 162 80c113 0 166 -47 166 -110c0 -40 -22 -68 -53 -84zM110 0v5
l187 232h141v-13l-170 -224h-158z" />
    <glyph glyph-name="uni2155" unicode="&#x2155;" horiz-adv-x="833" 
d="M200 396v142l-57 -51l-67 72l162 141h81v-304h76v-96h-292v96h97zM760 700v-5l-187 -232h-141v13l170 224h158zM593 304l-4 -36c137 10 191 -46 191 -129c0 -88 -65 -147 -179 -147c-65 0 -107 9 -140 25l35 92c26 -12 54 -20 85 -20c53 0 86 16 86 50
c0 56 -94 56 -193 39l17 222h263v-96h-161zM68 0v5l187 232h141v-13l-170 -224h-158z" />
    <glyph glyph-name="uni2156" unicode="&#x2156;" horiz-adv-x="870" 
d="M74 298v19l130 133c71 72 87 94 87 119c0 20 -15 36 -47 36c-34 0 -58 -22 -64 -65l-115 20c16 105 91 146 179 146c102 0 166 -58 166 -131c0 -42 -16 -91 -94 -164l-17 -16h121v-97h-346zM785 700v-5l-187 -232h-141v13l170 224h158zM630 304l-4 -36
c137 10 191 -46 191 -129c0 -88 -65 -147 -179 -147c-65 0 -107 9 -140 25l35 92c26 -12 54 -20 85 -20c53 0 86 16 86 50c0 56 -94 56 -193 39l17 222h263v-96h-161zM93 0v5l187 232h141v-13l-170 -224h-158z" />
    <glyph glyph-name="uni2157" unicode="&#x2157;" horiz-adv-x="876" 
d="M423 412c0 -71 -57 -121 -182 -121c-89 0 -151 40 -172 73l80 60c22 -23 62 -36 100 -36c36 0 61 15 61 42s-27 37 -82 37h-46v82h22c63 0 86 13 86 31c0 21 -16 29 -51 29c-41 0 -73 -17 -94 -43l-69 60c28 42 76 80 162 80c113 0 166 -47 166 -110
c0 -40 -22 -68 -53 -84c42 -12 72 -49 72 -100zM803 700v-5l-187 -232h-141v13l170 224h158zM636 304l-4 -36c137 10 191 -46 191 -129c0 -88 -65 -147 -179 -147c-65 0 -107 9 -140 25l35 92c26 -12 54 -20 85 -20c53 0 86 16 86 50c0 56 -94 56 -193 39l17 222h263v-96
h-161zM111 0v5l187 232h141v-13l-170 -224h-158z" />
    <glyph glyph-name="uni2158" unicode="&#x2158;" horiz-adv-x="887" 
d="M384 300h-114v57h-211v89l221 254h104v-250h46v-93h-46v-57zM815 700v-5l-187 -232h-141v13l170 224h158zM273 555h-1l-91 -105h92v105zM647 304l-4 -36c137 10 191 -46 191 -129c0 -88 -65 -147 -179 -147c-65 0 -107 9 -140 25l35 92c26 -12 54 -20 85 -20
c53 0 86 16 86 50c0 56 -94 56 -193 39l17 222h263v-96h-161zM123 0v5l187 232h141v-13l-170 -224h-158z" />
    <glyph glyph-name="uni2159" unicode="&#x2159;" horiz-adv-x="837" 
d="M241 700h81v-304h76v-96h-292v96h97v142l-57 -51l-67 72zM760 700v-5l-187 -232h-141v13l170 224h158zM662 272c71 0 137 -45 137 -131c0 -87 -68 -149 -176 -149s-177 62 -177 149c0 48 17 88 49 126l112 133h146v-3l-115 -126c8 1 16 1 24 1zM68 0v5l187 232h141v-13
l-170 -224h-158zM623 88c34 0 60 23 60 54s-26 54 -60 54c-35 0 -61 -23 -61 -54s26 -54 61 -54z" />
    <glyph glyph-name="uni215A" unicode="&#x215a;" horiz-adv-x="871" 
d="M201 389c53 0 86 16 86 50c0 56 -94 56 -193 39l17 222h263v-96h-161l-4 -36c137 10 191 -46 191 -129c0 -88 -65 -147 -179 -147c-65 0 -107 9 -140 25l35 92c26 -12 54 -20 85 -20zM799 700v-5l-187 -232h-141v13l170 224h158zM696 272c71 0 137 -45 137 -131
c0 -87 -68 -149 -176 -149s-177 62 -177 149c0 48 17 88 49 126l112 133h146v-3l-115 -126c8 1 16 1 24 1zM107 0v5l187 232h141v-13l-170 -224h-158zM657 88c34 0 60 23 60 54s-26 54 -60 54c-35 0 -61 -23 -61 -54s26 -54 61 -54z" />
    <glyph glyph-name="oneeighth" unicode="&#x215b;" horiz-adv-x="821" 
d="M192 396v142l-57 -51l-67 72l162 141h81v-304h76v-96h-292v96h97zM762 700v-5l-187 -232h-141v13l170 224h158zM731 220c43 -22 70 -59 70 -104c0 -73 -73 -125 -177 -125c-105 0 -179 52 -179 125c0 45 27 82 71 104c-29 19 -46 47 -46 80c0 64 64 109 154 109
s152 -45 152 -109c0 -33 -17 -61 -45 -80zM625 323c-25 0 -46 -16 -46 -36c0 -21 21 -36 46 -36c26 0 43 15 43 36c0 20 -17 36 -43 36zM70 0v5l187 232h141v-13l-170 -224h-158zM625 81c36 0 61 21 61 49s-25 48 -61 48c-37 0 -64 -20 -64 -48s27 -49 64 -49z" />
    <glyph glyph-name="threeeighths" unicode="&#x215c;" horiz-adv-x="863" 
d="M423 412c0 -71 -57 -121 -182 -121c-89 0 -151 40 -172 73l80 60c22 -23 62 -36 100 -36c36 0 61 15 61 42s-27 37 -82 37h-46v82h22c63 0 86 13 86 31c0 21 -16 29 -51 29c-41 0 -73 -17 -94 -43l-69 60c28 42 76 80 162 80c113 0 166 -47 166 -110
c0 -40 -22 -68 -53 -84c42 -12 72 -49 72 -100zM798 700v-5l-187 -232h-141v13l170 224h158zM773 220c43 -22 70 -59 70 -104c0 -73 -73 -125 -177 -125c-105 0 -179 52 -179 125c0 45 27 82 71 104c-29 19 -46 47 -46 80c0 64 64 109 154 109s152 -45 152 -109
c0 -33 -17 -61 -45 -80zM667 323c-25 0 -46 -16 -46 -36c0 -21 21 -36 46 -36c26 0 43 15 43 36c0 20 -17 36 -43 36zM106 0v5l187 232h141v-13l-170 -224h-158zM667 81c36 0 61 21 61 49s-25 48 -61 48c-37 0 -64 -20 -64 -48s27 -49 64 -49z" />
    <glyph glyph-name="fiveeighths" unicode="&#x215d;" horiz-adv-x="854" 
d="M201 389c53 0 86 16 86 50c0 56 -94 56 -193 39l17 222h263v-96h-161l-4 -36c137 10 191 -46 191 -129c0 -88 -65 -147 -179 -147c-65 0 -107 9 -140 25l35 92c26 -12 54 -20 85 -20zM786 700v-5l-187 -232h-141v13l170 224h158zM764 220c43 -22 70 -59 70 -104
c0 -73 -73 -125 -177 -125c-105 0 -179 52 -179 125c0 45 27 82 71 104c-29 19 -46 47 -46 80c0 64 64 109 154 109s152 -45 152 -109c0 -33 -17 -61 -45 -80zM658 323c-25 0 -46 -16 -46 -36c0 -21 21 -36 46 -36c26 0 43 15 43 36c0 20 -17 36 -43 36zM94 0v5l187 232h141
v-13l-170 -224h-158zM658 81c36 0 61 21 61 49s-25 48 -61 48c-37 0 -64 -20 -64 -48s27 -49 64 -49z" />
    <glyph glyph-name="seveneighths" unicode="&#x215e;" horiz-adv-x="803" 
d="M228 604h-162v96h319v-16l-158 -384h-124zM725 700v-5l-187 -232h-141v13l170 224h158zM713 220c43 -22 70 -59 70 -104c0 -73 -73 -125 -177 -125c-105 0 -179 52 -179 125c0 45 27 82 71 104c-29 19 -46 47 -46 80c0 64 64 109 154 109s152 -45 152 -109
c0 -33 -17 -61 -45 -80zM607 323c-25 0 -46 -16 -46 -36c0 -21 21 -36 46 -36c26 0 43 15 43 36c0 20 -17 36 -43 36zM33 0v5l187 232h141v-13l-170 -224h-158zM607 81c36 0 61 21 61 49s-25 48 -61 48c-37 0 -64 -20 -64 -48s27 -49 64 -49z" />
    <glyph glyph-name="uni215F" unicode="&#x215f;" horiz-adv-x="467" 
d="M239 709h81v-304h76v-96h-292v96h97v142l-57 -51l-67 72zM432 485l170 224h158v-5l-187 -232h-141v13zM68 9v5l187 232h141v-13l-170 -224h-158z" />
    <glyph glyph-name="uni2189" unicode="&#x2189;" horiz-adv-x="897" 
d="M438 501c0 -124 -72 -208 -188 -208c-118 0 -191 84 -191 208s73 208 191 208c116 0 188 -84 188 -208zM827 700v-5l-187 -232h-141v13l170 224h158zM178 501c0 -63 25 -105 72 -105c46 0 70 42 70 105c0 64 -24 106 -70 106c-47 0 -72 -42 -72 -106zM792 214
c42 -12 72 -49 72 -100c0 -71 -57 -121 -182 -121c-89 0 -151 40 -172 73l80 60c22 -23 62 -36 100 -36c36 0 61 15 61 42s-27 37 -82 37h-46v82h22c63 0 86 13 86 31c0 21 -16 29 -51 29c-41 0 -73 -17 -94 -43l-69 60c28 42 76 80 162 80c113 0 166 -47 166 -110
c0 -40 -22 -68 -53 -84zM135 0v5l187 232h141v-13l-170 -224h-158z" />
    <glyph glyph-name="arrowleft" unicode="&#x2190;" horiz-adv-x="835" 
d="M333 375h443v-144h-443l114 -109l-103 -103l-285 284l285 285l103 -103z" />
    <glyph glyph-name="arrowup" unicode="&#x2191;" horiz-adv-x="625" 
d="M313 717l284 -285l-103 -103l-109 114v-443h-144v443l-110 -114l-103 103z" />
    <glyph glyph-name="arrowright" unicode="&#x2192;" horiz-adv-x="835" 
d="M388 485l103 103l285 -285l-285 -284l-103 103l114 109h-443v144h443z" />
    <glyph glyph-name="arrowdown" unicode="&#x2193;" horiz-adv-x="625" 
d="M384 257l110 114l103 -103l-285 -285l-284 285l103 103l109 -114v443h144v-443z" />
    <glyph glyph-name="arrowboth" unicode="&#x2194;" horiz-adv-x="1106" 
d="M659 485l103 103l285 -285l-285 -284l-103 103l116 111h-444l116 -111l-103 -103l-285 284l285 285l103 -103l-116 -112h444z" />
    <glyph glyph-name="arrowupdn" unicode="&#x2195;" horiz-adv-x="625" 
d="M382 508v-416l112 118l103 -103l-285 -287l-284 287l103 103l111 -117v414l-111 -117l-103 103l284 287l285 -287l-103 -103z" />
    <glyph glyph-name="uni2196" unicode="&#x2196;" horiz-adv-x="685" 
d="M328 557l313 -314l-102 -101l-313 313l3 -158h-145l-1 403h403v-146z" />
    <glyph glyph-name="uni2197" unicode="&#x2197;" horiz-adv-x="685" 
d="M199 555v146h403l-1 -403h-145l3 158l-313 -313l-102 101l313 314z" />
    <glyph glyph-name="uni2198" unicode="&#x2198;" horiz-adv-x="685" 
d="M602 -1h-403v146l158 -3l-313 314l102 101l313 -313l-3 158h145z" />
    <glyph glyph-name="uni2199" unicode="&#x2199;" horiz-adv-x="685" 
d="M539 558l102 -101l-313 -314l158 3v-146h-403l1 403h145l-3 -158z" />
    <glyph glyph-name="uni21AF" unicode="&#x21af;" horiz-adv-x="473" 
d="M318 152l85 63l66 -95l-269 -186l-176 253l97 68l71 -104l51 197l-171 -25l92 387h134l-65 -247l166 20z" />
    <glyph glyph-name="arrowdbldown" unicode="&#x21d3;" horiz-adv-x="763" 
d="M248 750h116v-598h-70l-212 256l99 66l67 -96v372zM399 152v598h116v-372l67 96l99 -66l-212 -256h-70zM13 0v120h737v-120h-737z" />
    <glyph glyph-name="uni21DE" unicode="&#x21de;" horiz-adv-x="625" 
d="M597 432l-103 -103l-109 114v-140h96v-94h-96v-39h96v-94h-96v-76h-144v76h-96v94h96v39h-96v94h96v140l-110 -114l-103 103l285 285z" />
    <glyph glyph-name="uni21DF" unicode="&#x21df;" horiz-adv-x="625" 
d="M385 257l109 114l103 -103l-284 -285l-285 285l103 103l110 -114v140h-96v94h96v39h-96v94h96v76h144v-76h96v-94h-96v-39h96v-94h-96v-140z" />
    <glyph glyph-name="uni21E7" unicode="&#x21e7;" horiz-adv-x="821" 
d="M411 715l371 -410v-3h-187v-302h-368v302h-188v2zM480 105v287h71l-140 145l-140 -145h71v-287h138z" />
    <glyph glyph-name="uni21E9" unicode="&#x21e9;" horiz-adv-x="821" 
d="M782 398v-3l-371 -410l-372 411v2h188v302h368v-302h187zM551 308h-71v287h-138v-287h-71l140 -145z" />
    <glyph glyph-name="uni21EA" unicode="&#x21ea;" horiz-adv-x="821" 
d="M39 304l372 411l371 -410v-3h-187v-102h-368v102h-188v2zM481 302v90h72l-142 147l-142 -147h72v-90h140zM595 0h-368v172h368v-172z" />
    <glyph glyph-name="uni21F1" unicode="&#x21f1;" horiz-adv-x="760" 
d="M68 750h580v-60h-519v-540h-61v600zM415 490l270 -270l-87 -87l-270 270v-118h-111v315h315v-110h-117z" />
    <glyph glyph-name="partialdiff" unicode="&#x2202;" horiz-adv-x="599" 
d="M93 607l29 149c279 -28 450 -228 450 -471c0 -181 -110 -295 -272 -295c-159 0 -276 108 -276 252c0 137 88 238 250 238c32 0 61 -6 87 -16c-50 87 -168 133 -268 143zM298 138c62 0 108 46 108 108s-46 108 -108 108s-108 -46 -108 -108s46 -108 108 -108z" />
    <glyph glyph-name="emptyset" unicode="&#x2205;" horiz-adv-x="796" 
d="M752 700l-82 -106c56 -64 90 -148 90 -244c0 -207 -157 -362 -362 -362c-60 0 -116 13 -165 37l-20 -25h-169l82 106c-56 64 -90 148 -90 244c0 207 157 362 362 362c60 0 117 -13 166 -38l20 26h168zM206 350c0 -39 10 -75 27 -106l229 297c-20 7 -41 11 -64 11
c-109 0 -192 -86 -192 -202zM398 148c109 0 192 86 192 202c0 39 -10 75 -26 105l-229 -297c20 -6 41 -10 63 -10z" />
    <glyph glyph-name="uni2206" unicode="&#x2206;" horiz-adv-x="680" 
d="M257 700h166l264 -700h-694zM340 502l-127 -364h254z" />
    <glyph glyph-name="product" unicode="&#x220f;" horiz-adv-x="796" 
d="M76 -200v950h644v-950h-170v805h-304v-805h-170z" />
    <glyph glyph-name="summation" unicode="&#x2211;" horiz-adv-x="624" 
d="M23 750h556v-145h-269l211 -330l-211 -330h269v-145h-556v10l299 465l-299 465v10z" />
    <glyph glyph-name="minus" unicode="&#x2212;" horiz-adv-x="508" 
d="M449 230h-390v140h390v-140z" />
    <glyph glyph-name="radical" unicode="&#x221a;" horiz-adv-x="729" 
d="M420 -200h-202l-196 478l161 58l127 -309l219 723h177z" />
    <glyph glyph-name="infinity" unicode="&#x221e;" horiz-adv-x="869" 
d="M628 520c123 0 210 -94 210 -220s-87 -220 -210 -220c-68 0 -131 37 -193 115c-62 -78 -126 -115 -194 -115c-123 0 -210 94 -210 220s87 220 210 220c68 0 132 -37 194 -115c62 78 125 115 193 115zM252 222c35 0 62 17 114 78c-52 61 -79 78 -114 78
c-42 0 -72 -33 -72 -78s30 -78 72 -78zM617 222c42 0 72 33 72 78s-30 78 -72 78c-34 0 -62 -17 -112 -78c50 -61 78 -78 112 -78z" />
    <glyph glyph-name="integral" unicode="&#x222b;" horiz-adv-x="418" 
d="M433 741l-35 -128c-45 20 -86 18 -90 -42l-39 -602c-11 -169 -105 -242 -284 -158l35 128c45 -20 87 -18 91 42l38 602c11 172 97 235 284 158z" />
    <glyph glyph-name="approxequal" unicode="&#x2248;" horiz-adv-x="583" 
d="M491 476v-124c-32 -29 -71 -42 -109 -42c-86 0 -105 70 -180 70c-42 0 -79 -18 -110 -46v121c35 32 71 44 110 44c86 0 104 -70 180 -70c41 0 78 17 109 47zM491 266v-124c-32 -29 -71 -42 -109 -42c-86 0 -105 70 -180 70c-42 0 -79 -18 -110 -46v121
c35 32 71 44 110 44c86 0 104 -70 180 -70c41 0 78 17 109 47z" />
    <glyph glyph-name="notequal" unicode="&#x2260;" horiz-adv-x="604" 
d="M535 482v-130h-131l-52 -103h183v-130h-249l-60 -119h-152l60 119h-65v130h131l52 103h-183v130h248l60 118h152l-60 -118h66z" />
    <glyph glyph-name="lessequal" unicode="&#x2264;" horiz-adv-x="561" 
d="M473 202l-411 178v132l411 179v-142l-259 -103l259 -102v-142zM473 151v-133h-413v133h413z" />
    <glyph glyph-name="greaterequal" unicode="&#x2265;" horiz-adv-x="561" 
d="M499 512v-132l-411 -178v142l259 102l-259 103v142zM501 18h-413v133h413v-133z" />
    <glyph glyph-name="uni2318" unicode="&#x2318;" horiz-adv-x="791" 
d="M551 290h54c85 0 152 -66 152 -150s-67 -150 -152 -150c-86 0 -153 66 -153 150v56h-113v-56c0 -84 -67 -150 -153 -150c-85 0 -152 66 -152 150s67 150 152 150h54v119h-54c-85 0 -152 66 -152 150c0 85 67 151 152 151c86 0 153 -66 153 -151v-55h113v55
c0 85 67 151 153 151c85 0 152 -66 152 -151c0 -84 -67 -150 -152 -150h-54v-119zM186 504h54v55c0 31 -24 56 -54 56s-53 -25 -53 -56s23 -55 53 -55zM551 559v-55h54c30 0 53 24 53 55s-23 56 -53 56s-54 -25 -54 -56zM452 409h-113v-119h113v119zM240 140v56h-54
c-30 0 -53 -25 -53 -56s23 -55 53 -55s54 24 54 55zM605 196h-54v-56c0 -31 24 -55 54 -55s53 24 53 55s-23 56 -53 56z" />
    <glyph glyph-name="uni2325" unicode="&#x2325;" horiz-adv-x="802" 
d="M575 140h157v-140h-235l-282 560h-157v140h235zM732 560h-262v140h262v-140z" />
    <glyph glyph-name="uni2326" unicode="&#x2326;" horiz-adv-x="1029" 
d="M77 700h643l281 -350l-281 -350h-643v700zM190 103h467l202 247l-202 247h-467v-494zM676 469l-118 -118l119 -120l-86 -86l-119 120l-120 -120l-86 86l120 120l-119 118l86 86l119 -118l118 118z" />
    <glyph glyph-name="uni232B" unicode="&#x232b;" horiz-adv-x="1029" 
d="M28 350l281 350h643v-700h-643zM372 103h467v494h-467l-202 -247zM472 351l-119 118l86 86l119 -118l118 118l86 -86l-118 -118l119 -120l-86 -86l-119 120l-120 -120l-86 86z" />
    <glyph glyph-name="uni2380" unicode="&#x2380;" horiz-adv-x="628" 
d="M120 464c0 74 63 128 151 128c33 0 62 -9 86 -24c-5 48 -36 66 -83 66c-38 0 -78 -15 -105 -30l-35 74c32 20 94 44 159 44c106 0 174 -45 174 -165v-215h-110v17c-23 -15 -53 -24 -86 -24c-88 0 -151 54 -151 129zM361 465c0 31 -27 52 -66 52s-67 -21 -67 -52
c0 -30 28 -52 67 -52s66 22 66 52zM314 154l144 162l90 -86l-232 -239h-4l-232 240l91 85z" />
    <glyph glyph-name="uni2387" unicode="&#x2387;" horiz-adv-x="802" 
d="M732 700v-140h-157l-282 -560h-235v140h157l282 560h235zM470 0v140h262v-140h-262z" />
    <glyph glyph-name="uni23CE" unicode="&#x23ce;" horiz-adv-x="860" 
d="M634 349v251h121v-278c0 -113 -41 -148 -155 -148h-349l136 -126l-87 -87l-279 275l279 278l87 -87l-141 -133h328c40 0 60 15 60 55z" />
    <glyph glyph-name="uni2400" unicode="&#x2400;" horiz-adv-x="778" 
d="M679 644l54 -54l-128 -128c34 -45 54 -101 54 -162c0 -149 -121 -270 -270 -270c-61 0 -117 20 -162 54l-128 -128l-54 54l128 128c-34 45 -54 101 -54 162c0 149 121 270 270 270c61 0 117 -20 162 -54zM208 300c0 -36 10 -70 28 -99l252 252c-29 18 -63 29 -99 29
c-100 0 -182 -82 -181 -182zM570 300c0 36 -10 70 -28 99l-252 -252c29 -18 63 -29 99 -29c100 0 182 82 181 182z" />
    <glyph glyph-name="uni24D8" unicode="&#x24d8;" horiz-adv-x="803" 
d="M401 -5c-198 0 -355 154 -355 354c0 201 157 355 355 355c199 0 356 -154 356 -355c0 -200 -157 -354 -356 -354zM401 108c135 0 239 107 239 241c0 135 -104 242 -239 242c-134 0 -238 -108 -238 -242s104 -241 238 -241zM401 415c-46 0 -79 27 -79 68s33 69 79 69
c47 0 80 -28 80 -69s-33 -68 -80 -68zM472 161h-142v220h142v-220z" />
    <glyph glyph-name="uni24FF" unicode="&#x24ff;" horiz-adv-x="803" 
d="M401 -5c199 0 356 154 356 354c0 201 -157 355 -356 355c-198 0 -355 -154 -355 -355c0 -200 157 -354 355 -354zM403 121c-126 0 -205 92 -205 229c0 136 79 228 205 228c125 0 202 -92 202 -228c0 -137 -77 -229 -202 -229zM403 234c50 0 78 46 78 116
c0 69 -28 115 -78 115c-53 0 -81 -46 -81 -115c0 -70 28 -116 81 -116z" />
    <glyph glyph-name="filledbox" unicode="&#x25a0;" horiz-adv-x="720" 
d="M60 0v600h600v-600h-600z" />
    <glyph glyph-name="uni25A1" unicode="&#x25a1;" horiz-adv-x="720" 
d="M60 0v600h600v-600h-600zM548 492h-375v-383h375v383z" />
    <glyph glyph-name="uni25A4" unicode="&#x25a4;" horiz-adv-x="834" 
d="M67 0v700h700v-700h-700zM118 650v-45h598v45h-598zM118 513h598v45h-598v-45zM118 420h598v46h-598v-46zM118 327h598v46h-598v-46zM118 234h598v46h-598v-46zM118 141h598v46h-598v-46zM118 50h598v44h-598v-44z" />
    <glyph glyph-name="triagup" unicode="&#x25b2;" horiz-adv-x="768" 
d="M758 0h-748l374 663z" />
    <glyph glyph-name="uni25B3" unicode="&#x25b3;" horiz-adv-x="768" 
d="M758 0h-748l374 663zM384 429l-178 -316h357z" />
    <glyph glyph-name="triagdn" unicode="&#x25bc;" horiz-adv-x="768" 
d="M384 -63l-374 663h748z" />
    <glyph glyph-name="uni25BD" unicode="&#x25bd;" horiz-adv-x="768" 
d="M384 -63l-374 663h748zM563 487h-357l178 -316z" />
    <glyph glyph-name="uni25C6" unicode="&#x25c6;" horiz-adv-x="600" 
d="M565 350l-265 -265l-265 265l265 265z" />
    <glyph glyph-name="uni25C7" unicode="&#x25c7;" horiz-adv-x="600" 
d="M565 350l-265 -265l-265 265l265 265zM181 350l119 -119l119 119l-119 119z" />
    <glyph glyph-name="lozenge" unicode="&#x25ca;" horiz-adv-x="590" 
d="M16 350l278 407l280 -407l-280 -406zM151 350l143 -211l144 211l-144 211z" />
    <glyph glyph-name="circle" unicode="&#x25cb;" horiz-adv-x="803" 
d="M401 -5c-198 0 -355 154 -355 354c0 201 157 355 355 355c199 0 356 -154 356 -355c0 -200 -157 -354 -356 -354zM401 108c135 0 239 107 239 241c0 135 -104 242 -239 242c-134 0 -238 -108 -238 -242s104 -241 238 -241z" />
    <glyph glyph-name="uni25CC" unicode="&#x25cc;" horiz-adv-x="802" 
d="M401 571c-37 0 -66 29 -66 67c0 37 29 66 66 66s66 -29 66 -66c0 -38 -29 -67 -66 -67zM130 553c0 37 29 66 67 66c37 0 66 -29 66 -66s-29 -66 -66 -66c-38 0 -67 29 -67 66zM538 553c0 37 29 66 67 66c37 0 66 -29 66 -66s-29 -66 -66 -66c-38 0 -67 29 -67 66z
M112 282c-37 0 -66 29 -66 67c0 37 29 66 66 66s66 -29 66 -66c0 -38 -29 -67 -66 -67zM690 282c-37 0 -66 29 -66 67c0 37 29 66 66 66s66 -29 66 -66c0 -38 -29 -67 -66 -67zM130 145c0 37 29 66 67 66c37 0 66 -29 66 -66s-29 -66 -66 -66c-38 0 -67 29 -67 66zM538 144
c0 37 29 66 67 66c37 0 66 -29 66 -66s-29 -66 -66 -66c-38 0 -67 29 -67 66zM401 -6c-37 0 -66 29 -66 67c0 37 29 66 66 66s66 -29 66 -66c0 -38 -29 -67 -66 -67z" />
    <glyph glyph-name="uni25CF" unicode="&#x25cf;" horiz-adv-x="803" 
d="M401 -5c199 0 356 154 356 354c0 201 -157 355 -356 355c-198 0 -355 -154 -355 -355c0 -200 157 -354 355 -354z" />
    <glyph glyph-name="uni2605" unicode="&#x2605;" horiz-adv-x="824" 
d="M411 108l-260 -161l71 298l-232 198l304 23l118 284l117 -284l305 -23l-234 -198l74 -298z" />
    <glyph glyph-name="uni2606" unicode="&#x2606;" horiz-adv-x="824" 
d="M411 108l-260 -161l71 298l-232 198l304 23l118 284l117 -284l305 -23l-234 -198l74 -298zM339 284l-29 -118l104 64l103 -64l-28 118l91 78l-121 9l-45 112l-45 -112l-121 -9z" />
    <glyph glyph-name="uni2610" unicode="&#x2610;" horiz-adv-x="720" 
d="M60 0v600h600v-600h-600zM548 492h-375v-383h375v383z" />
    <glyph glyph-name="uni2611" unicode="&#x2611;" horiz-adv-x="720" 
d="M60 0v600h600v-600h-600zM548 492h-375v-383h375v383zM420 146h-121l-104 175l94 58l61 -108l51 182h112z" />
    <glyph glyph-name="uni2612" unicode="&#x2612;" horiz-adv-x="720" 
d="M60 0v600h600v-600h-600zM173 109h375v383h-375v-383zM359 226l-84 -84l-73 73l84 84l-84 84l73 73l84 -84l84 84l73 -73l-84 -84l84 -84l-73 -73z" />
    <glyph glyph-name="uni262E" unicode="&#x262e;" horiz-adv-x="803" 
d="M401 704c199 0 356 -154 356 -355c0 -200 -157 -354 -356 -354c-198 0 -355 154 -355 354c0 201 157 355 355 355zM347 409v176c-107 -25 -184 -121 -184 -236c0 -26 4 -50 11 -73zM640 349c0 113 -72 206 -175 234v-174l166 -128c6 22 9 45 9 68zM347 274l-118 -93
c31 -33 72 -57 118 -67v160zM465 274v-158c44 12 83 37 113 69z" />
    <glyph glyph-name="uni262F" unicode="&#x262f;" horiz-adv-x="803" 
d="M401 704c199 0 356 -154 356 -355c0 -200 -157 -354 -356 -354c-198 0 -355 154 -355 354c0 201 157 355 355 355zM401 591c-133 0 -236 -106 -238 -238c4 -80 69 -97 108 -97c81 0 105 53 125 104c24 61 64 91 119 90c66 -1 116 -41 125 -105v4c0 135 -104 242 -239 242
z" />
    <glyph glyph-name="smileface" unicode="&#x263a;" horiz-adv-x="803" 
d="M401 -5c-198 0 -355 154 -355 354c0 201 157 355 355 355c199 0 356 -154 356 -355c0 -200 -157 -354 -356 -354zM401 108c135 0 239 107 239 241c0 135 -104 242 -239 242c-134 0 -238 -108 -238 -242s104 -241 238 -241zM321 365c-42 0 -73 31 -73 74c0 42 31 74 73 74
c40 0 72 -32 72 -74c0 -43 -31 -74 -72 -74zM493 365c-42 0 -73 31 -73 74c0 38 33 74 73 74c41 0 73 -36 73 -74c0 -43 -32 -74 -73 -74zM494 334h103c0 -102 -84 -181 -191 -181c-106 0 -189 79 -189 181h103c0 -47 38 -84 86 -84c49 0 88 37 88 84z" />
    <glyph glyph-name="uni263F" unicode="&#x263f;" horiz-adv-x="800" 
d="M459 463l5 -94c107 -27 184 -121 184 -235c0 -137 -109 -244 -248 -244c-138 0 -247 107 -247 244c0 114 77 208 183 235l4 94l-114 -43l-40 124l117 32l-76 95l105 77l68 -102l67 102l105 -77l-76 -95l117 -32l-40 -124zM400 24c60 0 108 48 108 110s-48 110 -108 110
c-61 0 -108 -48 -107 -110c0 -62 47 -110 107 -110z" />
    <glyph glyph-name="female" unicode="&#x2640;" horiz-adv-x="1000" 
d="M987 48c20 -15 26 -41 5 -55c-45 -30 -185 -42 -284 -16c-60 -38 -132 -60 -208 -60s-148 22 -208 60c-99 -26 -239 -14 -284 16c-21 14 -15 40 5 55c75 56 94 171 94 262c0 216 177 393 393 393s393 -177 393 -393c0 -91 19 -206 94 -262zM500 635
c-148 0 -276 -105 -313 -243c84 6 249 38 350 121c25 20 47 20 65 0c71 -80 158 -119 213 -127c-35 141 -165 249 -315 249zM176 310c0 -176 148 -325 324 -325s324 149 324 325v10c-56 3 -162 28 -257 129c-134 -102 -309 -121 -391 -122v-17zM335 307c22 0 36 -22 36 -52
s-14 -52 -36 -52c-23 0 -37 22 -37 52s14 52 37 52zM666 307c22 0 36 -22 36 -52s-14 -52 -36 -52c-23 0 -37 22 -37 52s14 52 37 52zM572 148c17 15 35 13 46 2c11 -12 15 -32 -6 -50c-33 -29 -72 -42 -112 -42s-79 13 -112 42c-21 18 -17 38 -6 50c11 11 29 13 46 -2
s45 -25 72 -25s55 10 72 25zM90 38c36 -13 85 -11 131 -3c-32 31 -58 68 -77 109c-10 -46 -28 -84 -54 -106zM779 35c46 -8 95 -10 131 3c-26 22 -44 60 -54 106c-19 -41 -45 -78 -77 -109z" />
    <glyph glyph-name="male" unicode="&#x2642;" horiz-adv-x="1000" 
d="M500 703c216 0 393 -177 393 -393s-177 -393 -393 -393s-393 177 -393 393s177 393 393 393zM500 636c-149 0 -277 -105 -314 -244c83 6 249 38 351 121c25 20 47 20 65 0c71 -80 160 -119 214 -127c-35 141 -165 250 -316 250zM500 -16c177 0 325 149 325 326v10
c-56 3 -162 28 -258 129c-135 -102 -310 -121 -392 -122v-17c0 -177 148 -326 325 -326zM335 307c22 0 36 -22 36 -52s-14 -52 -36 -52c-23 0 -37 22 -37 52s14 52 37 52zM666 307c22 0 36 -22 36 -52s-14 -52 -36 -52c-23 0 -37 22 -37 52s14 52 37 52zM572 148
c17 15 35 13 46 2c11 -12 15 -32 -6 -50c-33 -29 -72 -42 -112 -42s-79 13 -112 42c-21 18 -17 38 -6 50c11 11 29 13 46 -2s45 -25 72 -25s55 10 72 25z" />
    <glyph glyph-name="uni2661" unicode="&#x2661;" horiz-adv-x="793" 
d="M565 642c109 0 191 -79 191 -184c0 -62 -26 -118 -83 -179l-277 -298l-276 298c-57 61 -83 117 -83 179c0 106 79 184 189 184c77 0 121 -33 170 -90c51 57 91 90 169 90zM562 532c-35 0 -56 -20 -85 -49l-81 -83l-80 83c-31 32 -52 49 -86 49c-47 0 -77 -34 -77 -79
c0 -30 11 -58 38 -86l205 -218l205 218c29 30 39 56 39 86c0 45 -28 79 -78 79z" />
    <glyph glyph-name="heart" unicode="&#x2665;" horiz-adv-x="786" 
d="M559 648c107 0 187 -83 187 -187c0 -60 -29 -116 -84 -177l-269 -295l-270 295c-56 61 -83 117 -83 177c0 105 77 187 183 187c79 0 120 -37 170 -86c49 49 89 86 166 86z" />
    <glyph glyph-name="diamond" unicode="&#x2666;" horiz-adv-x="673" 
d="M323 781h26l299 -431l-299 -431h-26l-298 431zM181 433l121 31v141zM370 605v-141l121 -31zM302 271v124l-179 -45zM549 350l-179 45v-124zM198 242l138 -196l137 196l-137 -62z" />
    <glyph glyph-name="uni26A5" unicode="&#x26a5;" horiz-adv-x="1000" 
d="M968 389c16 -9 19 -27 5 -34c-26 -14 -86 -15 -133 -1c-33 -23 -73 -36 -117 -36c-45 0 -85 13 -117 36c-48 -14 -107 -13 -133 1c-14 7 -13 24 1 32c31 17 44 90 44 138c0 117 89 207 205 207s205 -90 205 -207c0 -48 14 -121 40 -136zM405 565h-330c-11 0 -16 5 -16 16
v110c0 12 5 17 16 17h330c12 0 17 -5 17 -17v-110c0 -11 -5 -16 -17 -16zM723 699c-82 0 -148 -55 -165 -132c43 3 126 19 181 72c10 9 22 7 30 -6c34 -46 88 -70 122 -76c-14 82 -82 142 -168 142zM388 676h-295v-79h295v79zM553 525c0 -98 74 -173 170 -173
s169 73 171 170c-35 4 -97 24 -144 79c-68 -59 -155 -69 -197 -71v-5zM633 523c9 0 16 -10 16 -29c0 -18 -7 -28 -16 -28c-11 0 -18 10 -18 28c0 19 7 29 18 29zM815 523c9 0 16 -10 16 -29c0 -18 -7 -28 -16 -28c-11 0 -18 10 -18 28c0 19 7 29 18 29zM405 373h-330
c-11 0 -16 5 -16 17v109c0 12 5 17 16 17h330c12 0 17 -5 17 -17v-109c0 -12 -5 -17 -17 -17zM388 484h-295v-79h295v79zM509 378c19 -3 47 -2 68 2c-16 18 -29 39 -38 62c-6 -29 -16 -51 -30 -64zM869 380c21 -5 48 -6 67 -2c-15 10 -24 33 -29 63c-9 -23 -22 -43 -38 -61z
M769 429c5 6 14 5 21 -2c6 -7 5 -16 -3 -24c-16 -14 -38 -22 -64 -22s-49 8 -63 22c-9 8 -10 18 -1 26c5 6 14 5 19 -1c11 -9 26 -15 46 -15s34 7 45 16zM248 316c115 0 208 -94 208 -210c0 -112 -93 -204 -208 -204c-112 0 -203 93 -203 207s91 207 203 207zM251 283
c-81 0 -149 -56 -168 -132c44 4 127 20 180 72c11 9 22 7 31 -6c35 -46 92 -71 126 -76c-15 81 -86 142 -169 142zM887 217l42 -125c3 -9 -1 -15 -9 -17l-77 -18l52 -57c7 -7 6 -15 -2 -21l-112 -75c-7 -5 -13 -4 -17 3l-42 67l-41 -67c-4 -7 -11 -8 -18 -3l-112 75
c-8 6 -9 14 -2 21l52 57l-78 18c-7 2 -11 8 -8 17l42 124c3 8 8 10 16 7l74 -30l-5 76c-1 8 4 13 12 13h137c9 0 13 -5 12 -13l-6 -76l73 31c8 3 15 0 17 -7zM857 -7l-70 82l107 27l-30 83l-101 -37l5 104h-92l6 -104l-102 37l-29 -83l105 -27l-68 -82l75 -52l59 89l60 -89z
M251 -65c93 0 170 77 172 171c-35 3 -99 23 -148 79c-67 -58 -154 -69 -197 -71v-5c0 -95 78 -174 173 -174zM156 107c10 0 17 -10 17 -29c0 -18 -7 -28 -17 -28s-17 10 -17 28c0 19 7 29 17 29zM340 107c10 0 17 -10 17 -29c0 -18 -7 -28 -17 -28s-17 10 -17 28
c0 19 7 29 17 29zM291 16c8 6 17 7 23 1c9 -9 6 -19 -3 -26c-11 -11 -35 -22 -63 -22s-52 11 -64 22c-8 7 -11 17 -3 26c6 6 16 5 23 -1c9 -9 26 -15 44 -15c17 0 34 6 43 15z" />
    <glyph glyph-name="uni272A" unicode="&#x272a;" horiz-adv-x="803" 
d="M401 -5c199 0 356 154 356 354c0 201 -157 355 -356 355c-198 0 -355 -154 -355 -355c0 -200 157 -354 355 -354zM404 208l-185 -115l51 212l-165 141l216 16l84 202l83 -202l217 -16l-167 -141l53 -212z" />
    <glyph glyph-name="uni2731" unicode="&#x2731;" horiz-adv-x="742" 
d="M631 599l86 -148l-175 -101l175 -101l-86 -148l-174 100v-201h-172v201l-174 -100l-86 148l175 101l-175 101l86 148l174 -100v201h172v-201z" />
    <glyph glyph-name="uni2732" unicode="&#x2732;" horiz-adv-x="741" 
d="M426 444h-110v256h110v-256zM316 444l-56 -96l-223 130l56 96zM481 349l-55 95l223 130l55 -95zM704 221l-56 -96l-222 129l55 95zM94 126l-55 95l222 127l55 -94zM426 1h-110v253h110v-253z" />
    <glyph glyph-name="uni275B" unicode="&#x275b;" horiz-adv-x="457" 
d="M194 520l7 -2c99 57 217 0 217 -129c0 -103 -79 -178 -189 -178c-112 0 -193 84 -193 201c0 151 119 297 332 297v-79c-78 -1 -151 -44 -174 -110z" />
    <glyph glyph-name="uni275C" unicode="&#x275c;" horiz-adv-x="457" 
d="M228 709c112 0 193 -84 193 -201c0 -151 -119 -297 -332 -297v79c78 1 151 44 174 110l-7 2c-99 -57 -217 0 -217 129c0 103 79 178 189 178z" />
    <glyph glyph-name="uni275D" unicode="&#x275d;" horiz-adv-x="867" 
d="M194 520l7 -2c99 57 217 0 217 -129c0 -103 -79 -178 -189 -178c-112 0 -193 84 -193 201c0 151 119 297 332 297v-79c-78 -1 -151 -44 -174 -110zM604 520l7 -2c99 57 217 0 217 -129c0 -103 -79 -178 -189 -178c-112 0 -193 84 -193 201c0 151 119 297 332 297v-79
c-78 -1 -151 -44 -174 -110z" />
    <glyph glyph-name="uni275E" unicode="&#x275e;" horiz-adv-x="867" 
d="M228 709c112 0 193 -84 193 -201c0 -151 -119 -297 -332 -297v79c78 1 151 44 174 110l-7 2c-99 -57 -217 0 -217 129c0 103 79 178 189 178zM638 709c112 0 193 -84 193 -201c0 -151 -119 -297 -332 -297v79c78 1 151 44 174 110l-7 2c-99 -57 -217 0 -217 129
c0 103 79 178 189 178z" />
    <glyph glyph-name="uni2761" unicode="&#x2761;" horiz-adv-x="780" 
d="M356 700h346v-551c0 -209 -63 -357 -311 -357c-258 0 -350 191 -351 330l127 33c10 -133 57 -160 104 -160c58 0 85 51 85 154v68c-183 2 -286 79 -286 242c0 164 103 241 286 241zM411 -80c106 0 149 96 149 229v420h-62v-420c0 -109 -26 -185 -87 -229z" />
    <glyph glyph-name="uni2776" unicode="&#x2776;" horiz-adv-x="803" 
d="M401 -5c199 0 356 154 356 354c0 201 -157 355 -356 355c-198 0 -355 -154 -355 -355c0 -200 157 -354 355 -354zM485 574v-333h89v-106h-330v106h121v159l-66 -58l-71 72l174 160h83z" />
    <glyph glyph-name="uni2777" unicode="&#x2777;" horiz-adv-x="803" 
d="M401 -5c199 0 356 154 356 354c0 201 -157 355 -356 355c-198 0 -355 -154 -355 -355c0 -200 157 -354 355 -354zM330 401l-121 22c17 116 95 161 191 161c110 0 178 -64 178 -144c0 -46 -19 -97 -82 -162l-35 -37h128v-106h-371v24l174 176c47 48 60 70 60 97
c0 22 -17 41 -49 41c-37 0 -68 -25 -73 -72z" />
    <glyph glyph-name="uni2778" unicode="&#x2778;" horiz-adv-x="803" 
d="M401 -5c199 0 356 154 356 354c0 201 -157 355 -356 355c-198 0 -355 -154 -355 -355c0 -200 157 -354 355 -354zM509 366c44 -13 75 -53 75 -110c0 -77 -60 -134 -191 -134c-93 0 -157 46 -180 81l84 66c23 -25 66 -39 105 -39c37 0 64 16 64 46s-29 41 -86 41h-50v89
h25c66 0 90 14 90 35c0 22 -17 31 -54 31c-42 0 -76 -19 -98 -47l-72 65c30 47 79 89 169 89c119 0 174 -52 174 -121c0 -44 -23 -75 -55 -92z" />
    <glyph glyph-name="uni2779" unicode="&#x2779;" horiz-adv-x="803" 
d="M401 -5c199 0 356 154 356 354c0 201 -157 355 -356 355c-198 0 -355 -154 -355 -355c0 -200 157 -354 355 -354zM535 299h48v-103h-48v-62h-119v62h-221v98l231 279h109v-274zM419 299v115l-96 -115h96z" />
    <glyph glyph-name="uni277A" unicode="&#x277a;" horiz-adv-x="803" 
d="M401 -5c199 0 356 154 356 354c0 201 -157 355 -356 355c-198 0 -355 -154 -355 -355c0 -200 157 -354 355 -354zM400 424c119 0 167 -59 167 -143c0 -96 -68 -161 -188 -161c-68 0 -112 10 -146 27l36 102c27 -14 57 -22 97 -22c48 0 82 18 82 54c0 40 -35 54 -98 54
c-32 0 -65 -4 -102 -11l-2 2l18 242h275v-106h-169l-4 -39c12 1 23 1 34 1z" />
    <glyph glyph-name="uni277B" unicode="&#x277b;" horiz-adv-x="803" 
d="M401 -5c199 0 356 154 356 354c0 201 -157 355 -356 355c-198 0 -355 -154 -355 -355c0 -200 157 -354 355 -354zM442 430c74 0 143 -50 143 -144c0 -96 -72 -164 -184 -164c-114 0 -186 68 -186 164c0 52 17 96 51 138l118 146h153v-3l-119 -138c8 1 16 1 24 1zM401 228
c35 0 62 25 62 59s-27 59 -63 59s-63 -25 -63 -59s27 -59 64 -59z" />
    <glyph glyph-name="uni277C" unicode="&#x277c;" horiz-adv-x="803" 
d="M401 -5c199 0 356 154 356 354c0 201 -157 355 -356 355c-198 0 -355 -154 -355 -355c0 -200 157 -354 355 -354zM247 457v106h334v-17l-165 -422h-131l132 333h-170z" />
    <glyph glyph-name="uni277D" unicode="&#x277d;" horiz-adv-x="803" 
d="M401 -5c199 0 356 154 356 354c0 201 -157 355 -356 355c-198 0 -355 -154 -355 -355c0 -200 157 -354 355 -354zM513 374c45 -24 73 -64 73 -113c0 -80 -75 -136 -184 -136s-186 56 -186 136c0 49 29 89 74 113c-29 21 -48 52 -48 87c0 70 67 119 160 119
s158 -49 158 -119c0 -35 -18 -66 -47 -87zM403 486c-25 0 -48 -17 -48 -39c0 -23 23 -40 48 -40c27 0 45 17 45 40c0 22 -18 39 -45 39zM403 223c37 0 63 22 63 53c0 30 -26 53 -63 53c-39 0 -66 -23 -66 -53c0 -31 27 -53 66 -53z" />
    <glyph glyph-name="uni277E" unicode="&#x277e;" horiz-adv-x="803" 
d="M402 704c-199 0 -356 -154 -356 -354c0 -201 157 -355 356 -355c198 0 355 154 355 355c0 200 -157 354 -355 354zM361 269c-74 0 -143 50 -143 144c0 96 72 164 184 164c114 0 186 -68 186 -164c0 -52 -17 -96 -51 -138l-118 -146h-153v3l119 138c-8 -1 -16 -1 -24 -1z
M402 471c-35 0 -62 -25 -62 -59s27 -59 63 -59s63 25 63 59s-27 59 -64 59z" />
    <glyph glyph-name="uni277F" unicode="&#x277f;" horiz-adv-x="803" 
d="M401 -5c199 0 356 154 356 354c0 201 -157 355 -356 355c-198 0 -355 -154 -355 -355c0 -200 157 -354 355 -354zM519 133c-99 0 -162 71 -162 217s63 216 162 216c98 0 162 -70 161 -216s-63 -217 -161 -217zM328 561v-424h-115v261l-33 -36l-67 66l134 133h81zM519 238
c31 0 42 34 42 112s-11 111 -42 111s-43 -33 -42 -111s11 -112 42 -112z" />
    <glyph glyph-name="uni2780" unicode="&#x2780;" horiz-adv-x="803" 
d="M401 -5c-198 0 -355 154 -355 354c0 201 157 355 355 355c199 0 356 -154 356 -355c0 -200 -157 -354 -356 -354zM401 79c150 0 268 119 268 270c0 152 -118 271 -268 271s-267 -119 -267 -271c0 -151 117 -270 267 -270zM469 543v-277h74v-88h-275v88h101v132l-55 -48
l-59 60l145 133h69z" />
    <glyph glyph-name="uni2781" unicode="&#x2781;" horiz-adv-x="803" 
d="M401 -5c-198 0 -355 154 -355 354c0 201 157 355 355 355c199 0 356 -154 356 -355c0 -200 -157 -354 -356 -354zM401 79c150 0 268 119 268 270c0 152 -118 271 -268 271s-267 -119 -267 -271c0 -151 117 -270 267 -270zM341 394l-101 19c14 96 80 133 160 133
c91 0 148 -53 148 -120c0 -38 -16 -80 -68 -135l-30 -30h108v-89h-310v21l145 146c40 40 50 59 50 81c0 18 -14 34 -41 34c-30 0 -56 -20 -61 -60z" />
    <glyph glyph-name="uni2782" unicode="&#x2782;" horiz-adv-x="803" 
d="M401 -5c-198 0 -355 154 -355 354c0 201 157 355 355 355c199 0 356 -154 356 -355c0 -200 -157 -354 -356 -354zM401 79c150 0 268 119 268 270c0 152 -118 271 -268 271s-267 -119 -267 -271c0 -151 117 -270 267 -270zM491 363c36 -10 62 -44 62 -91
c0 -64 -50 -112 -159 -112c-78 0 -131 38 -150 68l70 55c19 -21 55 -33 87 -33c31 0 54 13 54 38s-24 35 -72 35h-42v74h21c55 0 75 11 75 29s-14 26 -45 26c-35 0 -63 -16 -81 -39l-60 54c25 39 65 74 140 74c100 0 145 -43 145 -101c0 -37 -19 -62 -45 -77z" />
    <glyph glyph-name="uni2783" unicode="&#x2783;" horiz-adv-x="803" 
d="M401 -5c-198 0 -355 154 -355 354c0 201 157 355 355 355c199 0 356 -154 356 -355c0 -200 -157 -354 -356 -354zM401 79c150 0 268 119 268 270c0 152 -118 271 -268 271s-267 -119 -267 -271c0 -151 117 -270 267 -270zM511 308h40v-86h-40v-51h-99v51h-185v82l193 232
h91v-228zM414 308v96l-80 -96h80z" />
    <glyph glyph-name="uni2784" unicode="&#x2784;" horiz-adv-x="803" 
d="M401 -5c-198 0 -355 154 -355 354c0 201 157 355 355 355c199 0 356 -154 356 -355c0 -200 -157 -354 -356 -354zM401 79c150 0 268 119 268 270c0 152 -118 271 -268 271s-267 -119 -267 -271c0 -151 117 -270 267 -270zM403 411c99 0 139 -49 139 -119
c0 -80 -56 -135 -156 -135c-57 0 -94 9 -122 23l30 85c22 -12 47 -18 81 -18c40 0 68 15 68 45c0 33 -29 45 -82 45c-26 0 -54 -4 -85 -10l-1 2l15 202h229v-89h-141l-3 -32c10 1 19 1 28 1z" />
    <glyph glyph-name="uni2785" unicode="&#x2785;" horiz-adv-x="803" 
d="M401 -5c-198 0 -355 154 -355 354c0 201 157 355 355 355c199 0 356 -154 356 -355c0 -200 -157 -354 -356 -354zM401 79c150 0 268 119 268 270c0 152 -118 271 -268 271s-267 -119 -267 -271c0 -151 117 -270 267 -270zM430 418c62 0 119 -42 119 -120
c0 -80 -60 -137 -153 -137c-95 0 -155 57 -155 137c0 43 14 80 42 115l99 122h127v-3l-99 -115c7 1 13 1 20 1zM396 250c29 0 52 21 52 49s-23 49 -53 49s-52 -21 -52 -49s22 -49 53 -49z" />
    <glyph glyph-name="uni2786" unicode="&#x2786;" horiz-adv-x="803" 
d="M401 -5c-198 0 -355 154 -355 354c0 201 157 355 355 355c199 0 356 -154 356 -355c0 -200 -157 -354 -356 -354zM401 79c150 0 268 119 268 270c0 152 -118 271 -268 271s-267 -119 -267 -271c0 -151 117 -270 267 -270zM275 438v88h278v-14l-137 -351h-109l110 277
h-142z" />
    <glyph glyph-name="uni2787" unicode="&#x2787;" horiz-adv-x="803" 
d="M401 -5c-198 0 -355 154 -355 354c0 201 157 355 355 355c199 0 356 -154 356 -355c0 -200 -157 -354 -356 -354zM401 79c150 0 268 119 268 270c0 152 -118 271 -268 271s-267 -119 -267 -271c0 -151 117 -270 267 -270zM494 370c38 -20 61 -53 61 -94
c0 -66 -62 -113 -153 -113s-155 47 -155 113c0 41 24 74 62 94c-25 18 -40 44 -40 73c0 58 55 99 133 99c77 0 132 -41 132 -99c0 -29 -15 -55 -40 -73zM403 464c-21 0 -40 -14 -40 -33s19 -33 40 -33c22 0 37 14 37 33s-15 33 -37 33zM403 245c31 0 52 18 52 44
c0 25 -21 44 -52 44c-33 0 -55 -19 -55 -44c0 -26 22 -44 55 -44z" />
    <glyph glyph-name="uni2788" unicode="&#x2788;" horiz-adv-x="803" 
d="M402 704c198 0 355 -154 355 -354c0 -201 -157 -355 -355 -355c-199 0 -356 154 -356 355c0 200 157 354 356 354zM402 620c-150 0 -268 -119 -268 -270c0 -152 118 -271 268 -271s267 119 267 271c0 151 -117 270 -267 270zM373 281c-62 0 -119 42 -119 120
c0 80 60 137 153 137c95 0 155 -57 155 -137c0 -43 -14 -80 -42 -115l-99 -122h-127v3l99 115c-7 -1 -13 -1 -20 -1zM407 449c-29 0 -52 -21 -52 -49s23 -49 53 -49s52 21 52 49s-22 49 -53 49z" />
    <glyph glyph-name="uni2789" unicode="&#x2789;" horiz-adv-x="803" 
d="M401 -5c-198 0 -355 154 -355 354c0 201 157 355 355 355c199 0 356 -154 356 -355c0 -200 -157 -354 -356 -354zM401 79c150 0 268 119 268 270c0 152 -118 271 -268 271s-267 -119 -267 -271c0 -151 117 -270 267 -270zM499 169c-83 0 -135 59 -135 181s52 180 135 180
c81 0 135 -58 134 -180s-53 -181 -134 -181zM339 526v-354h-95v218l-28 -30l-56 55l112 111h67zM499 257c25 0 35 28 35 93s-10 92 -35 92c-26 0 -36 -27 -35 -92c0 -65 9 -93 35 -93z" />
    <glyph glyph-name="uni2B1F" unicode="&#x2b1f;" horiz-adv-x="760" 
d="M594 0h-427l-132 406l346 250l344 -250z" />
    <glyph glyph-name="uni2B20" unicode="&#x2b20;" horiz-adv-x="760" 
d="M594 0h-427l-132 406l346 250l344 -250zM167 363l82 -251h263l82 251l-213 155z" />
    <glyph glyph-name="uni2B21" unicode="&#x2b21;" horiz-adv-x="756" 
d="M692 113l-314 -182l-314 182v364l314 181l314 -181v-364zM179 179l199 -115l199 115v230l-199 116l-199 -116v-230z" />
    <glyph glyph-name="uni2B22" unicode="&#x2b22;" horiz-adv-x="756" 
d="M692 113l-314 -182l-314 182v364l314 181l314 -181v-364z" />
    <glyph glyph-name="uniFB1D" unicode="&#xfb1d;" horiz-adv-x="292" 
d="M61 235v365h170v-339zM150 19c-32 0 -58 26 -58 58s26 58 58 58s58 -26 58 -58s-26 -58 -58 -58z" />
    <glyph glyph-name="uniFB1F" unicode="&#xfb1f;" horiz-adv-x="591" 
d="M61 250v350h170v-325zM348 250v350h170v-325zM65 31v123c155 -38 310 -38 465 0v-123c-135 -61 -330 -61 -465 0z" />
    <glyph glyph-name="uniFB20" unicode="&#xfb20;" horiz-adv-x="697" 
d="M466 315v285h170v-285c0 -226 -89 -315 -318 -315h-269v145h127l-124 455h175l123 -452c96 10 116 52 116 167z" />
    <glyph glyph-name="uniFB21" unicode="&#xfb21;" horiz-adv-x="1170" 
d="M838 211l286 -204v-7h-252l-413 294c-164 -32 -253 -121 -248 -294h-170c-5 217 96 331 285 389l-286 204v7h252l413 -294c164 32 253 121 248 294h170c5 -217 -96 -331 -285 -389z" />
    <glyph glyph-name="uniFB22" unicode="&#xfb22;" horiz-adv-x="1125" 
d="M36 455v145h1047v-145c-127 0 -171 -50 -171 -167v-288h-170v282c0 86 26 139 70 173h-776z" />
    <glyph glyph-name="uniFB23" unicode="&#xfb23;" horiz-adv-x="1153" 
d="M64 455v145h705c224 0 323 -98 323 -324v-276h-170v276c0 128 -43 179 -153 179h-705zM69 0v311l170 22v-333h-170z" />
    <glyph glyph-name="uniFB24" unicode="&#xfb24;" horiz-adv-x="1037" 
d="M487 610c377 0 515 -120 515 -310s-138 -310 -515 -310c-208 0 -359 23 -457 43l31 136c89 -16 245 -36 414 -36c270 0 357 65 357 167s-87 167 -357 167c-169 0 -325 -20 -413 -37l-32 137c98 20 249 43 457 43z" />
    <glyph glyph-name="uniFB25" unicode="&#xfb25;" horiz-adv-x="1068" 
d="M208 700v-100h839v-15l-328 -585h-189v6l252 449h-744v245h170z" />
    <glyph glyph-name="uniFB26" unicode="&#xfb26;" horiz-adv-x="1297" 
d="M67 600h872c206 0 297 -74 297 -269v-331h-1169v600zM237 455v-310h829v172c0 102 -42 138 -129 138h-700z" />
    <glyph glyph-name="uniFB27" unicode="&#xfb27;" horiz-adv-x="1051" 
d="M990 242v-242h-164v225c0 176 -82 239 -304 239c-201 0 -370 -24 -482 -43l-28 137c133 26 322 50 489 50c368 0 489 -98 489 -366z" />
    <glyph glyph-name="uniFB28" unicode="&#xfb28;" horiz-adv-x="1223" 
d="M74 600h770c228 0 318 -82 318 -298v-302h-170v302c0 105 -40 153 -150 153h-480v-300c0 -113 -70 -161 -174 -161c-83 0 -138 10 -168 20l22 134c20 -5 54 -10 90 -10c42 0 62 23 62 68v249h-120v145z" />
    <glyph glyph-name="uniFB29" unicode="&#xfb29;" horiz-adv-x="578" 
d="M363 533v-163h156v-141h-460v141h156v163h148z" />
    <glyph glyph-name="uniFB2A" unicode="&#xfb2a;" horiz-adv-x="826" 
d="M699 651c-32 0 -58 26 -58 58s26 58 58 58s58 -26 58 -58s-26 -58 -58 -58zM614 342v258h170v-253c0 -233 -133 -360 -371 -360s-371 127 -371 360v253h170v-258c0 -137 72 -210 201 -210s201 73 201 210zM328 600h170v-330l-170 -34v364z" />
    <glyph glyph-name="uniFB2B" unicode="&#xfb2b;" horiz-adv-x="826" 
d="M127 651c-32 0 -58 26 -58 58s26 58 58 58s58 -26 58 -58s-26 -58 -58 -58zM614 342v258h170v-253c0 -233 -133 -360 -371 -360s-371 127 -371 360v253h170v-258c0 -137 72 -210 201 -210s201 73 201 210zM328 600h170v-330l-170 -34v364z" />
    <glyph glyph-name="uniFB2C" unicode="&#xfb2c;" horiz-adv-x="826" 
d="M699 651c-32 0 -58 26 -58 58s26 58 58 58s58 -26 58 -58s-26 -58 -58 -58zM614 342v258h170v-253c0 -233 -133 -360 -371 -360s-371 127 -371 360v253h170v-258c0 -137 72 -210 201 -210s201 73 201 210zM328 600h170v-330l-170 -34v364zM380 194c0 28 22 51 50 51
s50 -23 50 -51c0 -27 -22 -50 -50 -50s-50 23 -50 50z" />
    <glyph glyph-name="uniFB2D" unicode="&#xfb2d;" horiz-adv-x="826" 
d="M127 651c-32 0 -58 26 -58 58s26 58 58 58s58 -26 58 -58s-26 -58 -58 -58zM614 342v258h170v-253c0 -233 -133 -360 -371 -360s-371 127 -371 360v253h170v-258c0 -137 72 -210 201 -210s201 73 201 210zM328 600h170v-330l-170 -34v364zM380 194c0 28 22 51 50 51
s50 -23 50 -51c0 -27 -22 -50 -50 -50s-50 23 -50 50z" />
    <glyph glyph-name="uniFB2E" unicode="&#xfb2e;" horiz-adv-x="710" 
d="M514 211l150 -204v-7h-188l-202 274c-47 -41 -68 -122 -63 -274h-170c-5 225 45 333 149 389l-150 204v7h188l202 -274c47 41 68 122 63 274h170c5 -225 -45 -333 -149 -389zM472 -149h-236v83h236v-83z" />
    <glyph glyph-name="uniFB2F" unicode="&#xfb2f;" horiz-adv-x="710" 
d="M514 211l150 -204v-7h-188l-202 274c-47 -41 -68 -122 -63 -274h-170c-5 225 45 333 149 389l-150 204v7h188l202 -274c47 41 68 122 63 274h170c5 -225 -45 -333 -149 -389zM316 -146h-91v76h259v-76h-91l3 -75v-62h-83v62z" />
    <glyph glyph-name="uniFB30" unicode="&#xfb30;" horiz-adv-x="710" 
d="M514 211l150 -204v-7h-188l-202 274c-47 -41 -68 -122 -63 -274h-170c-5 225 45 333 149 389l-150 204v7h188l202 -274c47 41 68 122 63 274h170c5 -225 -45 -333 -149 -389zM404 454c-31 0 -56 25 -56 56s25 56 56 56s56 -25 56 -56s-25 -56 -56 -56z" />
    <glyph glyph-name="uniFB31" unicode="&#xfb31;" horiz-adv-x="648" 
d="M551 310v-165h68v-145h-568v145h330v153c0 105 -49 169 -137 169c-59 0 -113 -24 -156 -48l-56 126c76 45 160 67 240 67c194 0 279 -104 279 -302zM284 301c0 -31 -25 -56 -56 -56s-56 25 -56 56s25 56 56 56s56 -25 56 -56z" />
    <glyph glyph-name="uniFB32" unicode="&#xfb32;" horiz-adv-x="426" 
d="M78 600h87c135 0 199 -58 199 -180v-420h-129l-26 96l-5 1c-33 -75 -84 -97 -139 -97h-45v160h45c91 0 135 44 135 126v98c0 50 -18 71 -68 71h-54v145zM88 254c-31 0 -56 25 -56 56s25 56 56 56s56 -25 56 -56s-25 -56 -56 -56z" />
    <glyph glyph-name="uniFB33" unicode="&#xfb33;" horiz-adv-x="635" 
d="M36 455v145h557v-145c-87 0 -121 -50 -121 -147v-308h-170v302c0 73 22 121 59 153h-325zM166 361c31 0 56 -25 56 -56s-25 -56 -56 -56s-56 25 -56 56s25 56 56 56z" />
    <glyph glyph-name="uniFB34" unicode="&#xfb34;" horiz-adv-x="693" 
d="M64 455v145h245c224 0 323 -98 323 -324v-276h-170v276c0 128 -43 179 -153 179h-245zM349 244c-31 0 -56 25 -56 56s25 56 56 56s56 -25 56 -56s-25 -56 -56 -56zM69 0v311l170 22v-333h-170z" />
    <glyph glyph-name="uniFB35" unicode="&#xfb35;" horiz-adv-x="304" 
d="M67 600h170v-600h-170v600zM-1 249c-29 0 -53 23 -53 52s24 53 53 53s53 -24 53 -53s-24 -52 -53 -52z" />
    <glyph glyph-name="uniFB36" unicode="&#xfb36;" horiz-adv-x="440" 
d="M410 600v-145c-165 0 -198 -114 -66 -455h-181c-96 267 -75 405 29 455h-150v145h368zM32 431c31 0 56 -25 56 -56s-25 -56 -56 -56s-56 25 -56 56s25 56 56 56z" />
    <glyph glyph-name="uniFB38" unicode="&#xfb38;" horiz-adv-x="705" 
d="M431 608c135 0 235 -84 235 -289c0 -209 -109 -329 -306 -329s-318 120 -318 329v281h170v-281c0 -118 54 -184 148 -184s140 66 140 184c0 84 -25 144 -90 144c-38 0 -53 -8 -79 -19l-42 127c38 21 84 37 142 37zM365 253c-31 0 -56 25 -56 56s25 56 56 56
s56 -25 56 -56s-25 -56 -56 -56z" />
    <glyph glyph-name="uniFB39" unicode="&#xfb39;" horiz-adv-x="292" 
d="M61 235v365h170v-339zM-6 324c-29 0 -52 23 -52 51c0 29 23 52 52 52c28 0 51 -23 51 -52c0 -28 -23 -51 -51 -51z" />
    <glyph glyph-name="uniFB3A" unicode="&#xfb3a;" horiz-adv-x="570" 
d="M36 455v145h177c219 0 296 -85 296 -317v-433h-170v433c0 126 -37 172 -138 172h-165zM167 244c-31 0 -56 25 -56 56s25 56 56 56s56 -25 56 -56s-25 -56 -56 -56z" />
    <glyph glyph-name="uniFB3B" unicode="&#xfb3b;" horiz-adv-x="575" 
d="M235 610c187 0 305 -120 305 -310s-118 -310 -305 -310c-78 0 -145 21 -205 61l53 118c37 -19 81 -39 130 -39c100 0 157 68 157 170s-57 170 -157 170c-49 0 -93 -20 -129 -40l-54 119c60 40 127 61 205 61zM213 244c-31 0 -56 25 -56 56s25 56 56 56s56 -25 56 -56
s-25 -56 -56 -56z" />
    <glyph glyph-name="uniFB3C" unicode="&#xfb3c;" horiz-adv-x="588" 
d="M208 700v-100h359v-15l-208 -585h-181v6l164 449h-304v245h170zM158 278c-31 0 -56 25 -56 56s25 56 56 56s56 -25 56 -56s-25 -56 -56 -56z" />
    <glyph glyph-name="uniFB3E" unicode="&#xfb3e;" horiz-adv-x="762" 
d="M439 609c171 0 284 -126 284 -306c0 -253 -157 -368 -384 -280l37 138c127 -56 187 -2 187 142c0 102 -51 156 -116 156c-61 0 -110 -43 -150 -192l-72 -267h-168l77 273l-112 327h167l38 -127c46 91 125 136 212 136zM493 302c0 -31 -25 -56 -56 -56s-56 25 -56 56
s25 56 56 56s56 -25 56 -56z" />
    <glyph glyph-name="uniFB40" unicode="&#xfb40;" horiz-adv-x="389" 
d="M327 0h-287v145h117v234c0 57 -11 76 -57 76h-44v145h97c126 0 174 -55 174 -174v-426zM70 244c-31 0 -56 25 -56 56s25 56 56 56s56 -25 56 -56s-25 -56 -56 -56z" />
    <glyph glyph-name="uniFB41" unicode="&#xfb41;" horiz-adv-x="685" 
d="M42 600h302c198 0 302 -99 302 -295c0 -199 -114 -317 -302 -317c-190 0 -302 118 -302 317v295zM344 133c85 0 132 64 132 172c0 99 -38 150 -132 150h-132v-150c0 -108 45 -172 132 -172zM344 244c-31 0 -56 25 -56 56s25 56 56 56s56 -25 56 -56s-25 -56 -56 -56z" />
    <glyph glyph-name="uniFB43" unicode="&#xfb43;" horiz-adv-x="641" 
d="M288 610c196 0 294 -104 294 -294v-466h-165v465c0 97 -39 150 -125 150c-53 0 -98 -47 -98 -103c0 -59 34 -97 98 -105l-25 -141c-150 12 -244 116 -244 247c0 145 107 247 265 247zM303 304c-31 0 -56 25 -56 56s25 56 56 56s56 -25 56 -56s-25 -56 -56 -56z" />
    <glyph glyph-name="uniFB44" unicode="&#xfb44;" horiz-adv-x="658" 
d="M308 611c204 0 315 -122 315 -306c0 -189 -112 -316 -335 -316c-75 0 -155 11 -227 42l42 132c56 -22 119 -32 182 -32c107 0 168 71 168 174c0 97 -56 164 -145 164c-72 0 -108 -29 -108 -73c0 -43 36 -69 103 -65l-5 -131c-166 -11 -268 78 -268 196
c0 147 122 215 278 215zM377 248c-31 0 -56 25 -56 56s25 56 56 56s56 -25 56 -56s-25 -56 -56 -56z" />
    <glyph glyph-name="uniFB46" unicode="&#xfb46;" horiz-adv-x="641" 
d="M447 233l151 -221v-12h-539v145h260l-311 450v5h187l171 -249c48 35 68 108 63 249h164c6 -208 -38 -314 -146 -367zM174 245c0 -31 -25 -56 -56 -56s-56 25 -56 56s25 56 56 56s56 -25 56 -56z" />
    <glyph glyph-name="uniFB47" unicode="&#xfb47;" horiz-adv-x="707" 
d="M64 455v145h578v-341c0 -213 -109 -266 -225 -266c-45 0 -81 5 -120 17l19 140c25 -7 50 -12 77 -12c57 0 85 21 85 137v180h-414zM360 251c-31 0 -56 25 -56 56s25 56 56 56s56 -25 56 -56s-25 -56 -56 -56zM69 328l164 20v-498h-164v478z" />
    <glyph glyph-name="uniFB48" unicode="&#xfb48;" horiz-adv-x="601" 
d="M538 310v-310h-164v303c0 106 -52 167 -144 167c-61 0 -115 -24 -162 -48l-56 121c88 49 170 65 247 65c158 0 279 -90 279 -298zM227 248c-31 0 -56 25 -56 56s25 56 56 56s56 -25 56 -56s-25 -56 -56 -56z" />
    <glyph glyph-name="uniFB49" unicode="&#xfb49;" horiz-adv-x="826" 
d="M614 342v258h170v-253c0 -233 -133 -360 -371 -360s-371 127 -371 360v253h170v-258c0 -137 72 -210 201 -210s201 73 201 210zM328 600h170v-330l-170 -34v364zM380 194c0 28 22 51 50 51s50 -23 50 -51c0 -27 -22 -50 -50 -50s-50 23 -50 50z" />
    </font>
</defs>
</svg>
